[TR24][OF] Munchner Rundfunkorchester, Peter Dijkstra - Arvo Part: Te Deum - 2015 (Classical sacred) WEB

DL-List and Torrent activity [Update пиров]
Size:  645 MB   |    Registered:  10 months 20 days   |    Completed:  0 times

Seeder not seen: Never



Munchner Rundfunkorchester, Peter Dijkstra / Arvo Part: Te Deum

Формат записи/Источник записи: [TR24][OF]
Наличие водяных знаков: Нет
Год издания/переиздания диска: 2015
Жанр: Classical sacred
Издатель(лейбл): © 2015 BRmedia Service GmbH
Продолжительность: Total time: 67:06
Наличие сканов в содержимом раздачи: Да

скрытый текст

01 - Te Deum
02 - Wallfahrtslied / Pilgrims' Song
03 - Kyrie
04 - Gloria
05 - Dopo la vittoria
06 - Credo
07 - Sanctus
08 - Agnus Dei
Контейнер: FLAC (*.flac)
Тип рипа: tracks
Разрядность: 24/48
Формат: MLP(PPCM)
Количество каналов: 2.0
Другие дорожки звука: Studio Master, Official Digital Download

Скриншот спектра частот

foobar2000 1.3.8 / Dynamic Range Meter 1.1.1
log date: 2015-07-10 21:01:22
Analyzed: Chor des Bayerischen Rundfunks, Münchner Rundfunkorchester, Peter Dijkstra / Pärt: Te Deum
DR Peak RMS Duration Track
DR13 -2.21 dB -21.67 dB 31:25 01-Te Deum
DR12 -4.48 dB -21.75 dB 8:18 02-Wallfahrtslied / Pilgrims’ Song
DR15 -4.22 dB -29.04 dB 3:30 03-Kyrie
DR12 -1.48 dB -18.63 dB 4:10 04-Gloria
DR14 -0.20 dB -21.48 dB 9:42 05-Dopo la vittoria
DR13 -1.95 dB -19.19 dB 4:18 06-Credo
DR12 -13.14 dB -30.05 dB 3:24 07-Sanctus
DR12 -12.71 dB -31.52 dB 2:23 08-Agnus Dei
Number of tracks: 8
Official DR value: DR13
Samplerate: 48000 Hz
Channels: 2
Bits per sample: 24
Bitrate: 1202 kbps
Codec: FLAC
Доп. информация: Live-Aufnahmen/Live-recordings:

скрытый текст

München, Prinzregententheater: Te Deum, Wallfahrtslied (13./15.02.2014), Berliner Messe (23./25.02.2012)
München, Herkulessaal der Residenz: Dopo la vittoria (11./13.07.2012)
Источник (релизер): HDSOUND, портал hdsound.biz
Оркестр: Chor des Bayerischen Rundfunks; Munchner Rundfunkorchester
Композитор: Arvo Pärt
Дирижер: Peter Dijkstra

Об альбоме (сборнике)

Product Description
On this latest BR-KLASSIK recording of sacred music by Estonian composer Arvo Pärt (b. 1935), the regularly award-winning Chor des Bayerischen Rundfunks, conducted by Peter Dijkstra, is joined by the Münchner Rundfunkorchester, a frequent occurrence in their concert series that regularly include sacred music from the 19th through the 21st c. The present three compositions were written in 1984 and 1990 in the composer's own tintinnabulation style of composition (from the Latin word for the 'ringing of bells'). In his Te Deum, Pärt makes a conscious departure from the traditionally powerful and festive sound of such precursors as Charpentier, Bruckner and Verdi. The restraint of the Wallfahrtslied (Pilgrims' Song), a setting of Psalm 121, evokes the ancient Judeo-Christian tradition of psalm recitation. The Berliner Messe (Berlin Mass) is so named because it was first performed in the city's St. Hedwig's Cathedral (1990) to mark the German Katholikentag (Catholics Day).
"Another--thought completely contrasting--leading composer of today, showing the diverse riches our age offers. The sparse grandeur of Part's music is given fine performances." --Gramophone Editor's Choice, July 2015
Torrent: Registered [ 2015-12-07 05:05 ] · DE4A2AE833674EB39DFF605668B852377EE416B4

Download .torrent


14 KB

Status: checked
Completed: 0 times
Size: 645 MB

Quick Reply


Heads necessary to send messages to enable JavaScript
Display posts:    

Current time is: 27-Oct 09:58

All times are UTC + 3

You can post new topics in this forum
You can reply to topics in this forum
You cannot edit your posts in this forum
You cannot delete your posts in this forum
You cannot vote in polls in this forum
You cannot attach files in this forum
You can download files in this forum