[TR24][OF] Rachmaninov/Рахманинов: Piano Concerto №2; Tchaikovsky/Чайковский: Piano Concerto №1 - Sviatoslav Richter/Рихтер, Warsaw National Philharmonic Orchestra, Stanislaw Wislocki,Wiener Symphoniker, Herbert von Karajan - 1996/2015 (Classical)


Статистика раздачи [Обновить пиров]
Размер:  1.29 GB   |    Зарегистрирован:  11 месяцев   |    Скачан:  0 раз
Сидов:  1  [  0 KB/s  ]   Подробная статистика пиров
 
   
 
 
 

[Цитировать]

Sviatoslav Richter
Rachmaninov: Piano Concerto No. 2
Tchaikovsky: Piano Concerto No. 1

Stanislaw Wislocki · Herbert von Karajan
-Год издания/переиздания: 1996/2015 | Жанр: Classical
Издатель: Deutsche Grammophon | Продолжительность: 01:11:05
Наличие сканов: Sleeve, Digital Booklet- -Контейнер: FLAC (*.flac) | Тип рипа: tracks
Разрядность: 24bit / 96kHz | Количество каналов: 2.0
-Треклист
Sergei Rachmaninov (1873-1943)
Piano Concerto No.2 In C Minor, Op.18
01. I. Moderato (11:10)
02. II. Adagio sostenuto (11:55)
03. III. Allegro scherzando (11:42)
Pyotr Tchaikovsky (1840-1893)
Piano Concerto No.1 In B Flat Minor, Op.23
04. I. Allegro non troppo e molto maestoso - Allegro con spirito (22:11)
05. II. Andantino semplice - Prestissimo - Tempo I (6:55)
06. III. Allegro con fuoco (7:11)

О релизе


Although the late Sviatoslav Richter spent his later years concentrating on Bach, Beethoven, and Haydn, he never completely abandoned the music of his native country. His reading of Rachmaninov's most popular concerto, captured in fine late-'50s stereo, is one of the most glorious ever recorded. Richter's amazing technique is completely up to the demands of Rachmaninov's difficult writing, and he plays the heart-on-sleeve melodies with such refined intensity that they never sound sentimental. This performance is a truly amazing example of great pianism, very strongly supported by the fine orchestra and its little-known conductor.
Unfortunately, the accompanying Tchaikovsky is a dud. Karajan and Richter recorded this work together as a favor to a record-company executive, but they don't seem to be in sympathy. The conductor's excessive refinement holds the pianist back, and the result is much too restrained for the music. Never mind. The Rachmaninov alone is easily worth the price of this disc.
„. . I'd have to have this with me on a desert island. It's one of the best examples of a master getting to grips with a popular work and recreating it anew -- it's sensational.“ (Huw Edwards, Helen Wallace, BBC Music Magazine)
Sviatoslav Richter, piano
Warsaw Philharmonic Orchestra
Stanislaw Wislocki, conductor
Wiener Symphoniker
Herbert von Karajan, conductor
Recorded (Rachmaninov) in Warsaw, Philharmonie on 26th to 28th April 1959; released 1959, won Grand Prix International du Disque in 1960)
Recorded (Tchaikovsky) in Vienna, Musikvereins-Saal on 24th to 26th September 1962; Released in 1963; won Edison prize in 1963)
Engineered by Günter Hermanns (Rachmaninov), Heinz Wildhagen (Tchaikovsky)
Produced by Hans Weber (tracks: 1 to 3), Otto Ernst Wohlert (tracks: 4 to 6)
Executive-Producer: Prof. Elsa Schiller
Digitally remastered

ОтчётыДинамический диапазон

foobar2000 1.3.8 / Dynamic Range Meter 1.1.1log date: 2015-07-11 11:09:07
--------------------------------------------------------------------------------Analyzed: Sviatoslav Richter, Warsaw National Philharmonic Orchestra, Stanislaw Wislocki / Rachmaninov: Piano Concerto No.2 / Tchaikovsky: Piano Concerto No.1 (1-3) Sviatoslav Richter, Wiener Symphoniker, Herbert von Karajan / Rachmaninov: Piano Concerto No.2 / Tchaikovsky: Piano Concerto No.1 (4-6)--------------------------------------------------------------------------------
DR Peak RMS Duration Track--------------------------------------------------------------------------------DR11 -4.16 dB -20.94 dB 11:10 01-Piano Concerto No.2 In C Minor, Op.18 - I. ModeratoDR14 -6.33 dB -26.73 dB 11:55 02-Piano Concerto No.2 In C Minor, Op.18 - II. Adagio sostenutoDR12 -1.63 dB -20.96 dB 11:42 03-Piano Concerto No.2 In C Minor, Op.18 - III. Allegro scherzandoDR13 -1.51 dB -19.97 dB 22:11 04-Piano Concerto No.1 In B Flat Minor, Op.23 - I. Allegro non troppo e molto maestoso - Allegro con spiritoDR17 -4.75 dB -32.70 dB 6:55 05-Piano Concerto No.1 In B Flat Minor, Op.23 - II. Andantino semplice - Prestissimo - Tempo IDR11 -0.92 dB -18.06 dB 7:11 06-Piano Concerto No.1 In B Flat Minor, Op.23 - III. Allegro con fuoco--------------------------------------------------------------------------------
Number of tracks: 6Official DR value: DR13
Samplerate: 96000 HzChannels: 2Bits per sample: 24Bitrate: 2762 kbpsCodec: FLAC================================================================================

Скриншот спектра частот

Доп. информация

При скачивании, если необходимо, переименуйте папку, в которой будет находиться альбомБольшая просьба к скачавшим поддерживать раздачу! Помогайте другим, ведь вам тоже может понадобиться помощь!Не забываем говорить "Спасибо"!Комментарии приветствуются!
[teatrix.ru].t11155.torrent 
Торрент: Зарегистрирован [ 2015-12-07 05:05 ] · DDE15EFB13DDFF187F04EAFE244501B9A712AE01

Скачать .torrent

Скачать

14 KB

Статус: проверено
Скачан: 0 раз
Размер: 1.29 GB
terms.php



Быстрый ответ

Имя:

      
Для отправки сообщений необходимо включить JavaScript
Показать сообщения:    

Текущее время: 05-Дек 07:24

Часовой пояс: UTC + 3


Вы можете начинать темы
Вы можете отвечать на сообщения
Вы не можете редактировать свои сообщения
Вы не можете удалять свои сообщения
Вы не можете голосовать в опросах
Вы не можете прикреплять файлы к сообщениям
Вы можете скачивать файлы