[TR24][OF] Franz Schubert: Complete Works for Violin and Piano, Volume 2 - Julia Fischer, Martin Helmchen - 2010 (Classical)


Статистика раздачи [Обновить пиров]
Размер:  1.11 GB   |    Зарегистрирован:  11 месяцев 27 дней   |    Скачан:  1 раз

Полного источника не было: 3 месяца 16 дней

 
   
 
 
 

[Цитировать]

Franz Schubert
Complete Works for Violin and Piano, Vol. 2
Julia Fischer, Martin Helmchen
-Год издания: 2010 | Жанр: Classical
Издатель: PentaTone Classics | Продолжительность: 01:07:02
Наличие сканов: Sleeve, Digital Booklet- -Контейнер: FLAC (*.flac) | Тип рипа: tracks
Разрядность: 24bit / 96kHz | Количество каналов: 2.0
-
Треклист
Franz Schubert (1797-1828)
Sonata for Violin and Piano in A major “Duo”, D. 574
01. I. Allegro moderato (8:52)
02. II. Scherzo (Presto) (4:09)
03. III. Andantino (4:28)
04. IV. Allegro vivace (5:08)
Fantasia for Violin and Piano in C major, D. 934
05. I. Andante molto (3:23)
06. II. Allegretto (5:36)
07. III. Andantino (10:22)
08. IV. Tempo primo-Allegro-Allegretto-Presto (5:59)
Fantasia in F minor for Piano Duet, D. 940
09. I. Allegro molto moderato (4:55)
10. II. Largo (2:48)
11. III. Allegro vivace (5:41)
12. IV. Tempo I (5:40)

О релизе


This album together with Volume 1 completes the collaboration between Julia Fischer and Pentatone. Since all works which Schubert wrote for Violin and Piano, Volume 2 will show Julia Fischer as pianist as well (in the 4-hands piece: Fantasie in F minor D 940/op. 103).
Schubert’s complete works for violin and piano consist of three “sonatinas” Op. 137 Nos. 1-3 (D. 384, 385 and 408), Rondo Brillant D. 895, the Duo D. 574, and the amazing late Fantasia in D major D. 934. Because these do not quite fill two CDs, Volume 2 includes the Fantasia in F minor for piano duet, with Julia Fischer taking the second piano part. She’s obviously a tremendously gifted artist as the performance is an excellent one in every respect, and you’d never guess that one of the players is not a professional pianist.
That said, it’s the violin and piano works that constitute the principal attraction, and I include both discs together because I can’t imagine anyone interested in one not wanting the other as well. The three sonatinas are not, in fact, all that small, especially the latter two, which have four substantial movements apiece. Like everything Schubert wrote they are melodically generous and lovely from beginning to end. The D. 574 is more ambitious still, and by the time we get to the Fantasia we are talking about miracles. These performances are stupendous: perfectly balanced dialogs between two vibrant young personalities, ideally recorded in a warm acoustic space. There’s no need to say more: just get these discs. --David Hurwitz, ClassicsToday.com
“Helmchen is adept at pinpointing the crucial harmonies… and his touch is unusually sensitive… Fischer similarly manages to combine restraint with warm expression, and the occasional moments where she plays with more abandon - as in her dramatic first entry in D385 and the ebullient Minute of D403 - stand out the more effectively.” --GRAMOPHONE
Personnel:
Julia Fischer, violin / piano (D. 940)
Martin Helmchen, piano
Recorded: Concertboerderij Valthermond, The Netherlands, 3-5/1/2009 & 3-5/7/2009

ОтчётыДинамический диапазон

foobar2000 1.3.8 / Dynamic Range Meter 1.1.1log date: 2015-06-29 02:06:55
--------------------------------------------------------------------------------Analyzed: Julia Fischer, Martin Helmchen / Schubert: Complete Works for Violin and Piano, Volume 2--------------------------------------------------------------------------------
DR Peak RMS Duration Track--------------------------------------------------------------------------------DR14 -4.09 dB -24.38 dB 8:52 01-Sonata for Violin and Piano in A major “Duo”, D. 574 - I. Allegro moderatoDR15 -0.11 dB -21.70 dB 4:09 02-Sonata for Violin and Piano in A major “Duo”, D. 574 - II. Scherzo (Presto)DR15 -4.20 dB -25.99 dB 4:28 03-Sonata for Violin and Piano in A major “Duo”, D. 574 - III. AndantinoDR15 -1.20 dB -22.76 dB 5:08 04-Sonata for Violin and Piano in A major “Duo”, D. 574 - IV. Allegro vivaceDR13 -15.85 dB -32.48 dB 3:23 05-Fantasia for Violin and Piano in C major, D. 934 - I. Andante moltoDR13 -3.97 dB -22.88 dB 5:36 06-Fantasia for Violin and Piano in C major, D. 934 - II. AllegrettoDR16 -3.98 dB -25.75 dB 10:22 07-Fantasia for Violin and Piano in C major, D. 934 - III. AndantinoDR14 -2.67 dB -22.15 dB 5:59 08-Fantasia for Violin and Piano in C major, D. 934 - IV. Tempo primo-Allegro-Allegretto-PrestoDR14 -1.53 dB -24.44 dB 4:55 09-Fantasia in F minor for Piano Duet, D. 940 - I. Allegro molto moderatoDR15 -2.14 dB -21.10 dB 2:48 10-Fantasia in F minor for Piano Duet, D. 940 - II. LargoDR15 -1.85 dB -22.75 dB 5:41 11-Fantasia in F minor for Piano Duet, D. 940 - III. Allegro vivaceDR13 -1.91 dB -21.45 dB 5:40 12-Fantasia in F minor for Piano Duet, D. 940 - IV. Tempo I--------------------------------------------------------------------------------
Number of tracks: 12Official DR value: DR14
Samplerate: 96000 HzChannels: 2Bits per sample: 24Bitrate: 2293 kbpsCodec: FLAC================================================================================

Скриншот спектра частот

Доп. информация

При скачивании, если необходимо, переименуйте папку, в которой будет находиться альбомБольшая просьба к скачавшим поддерживать раздачу! Помогайте другим, ведь вам тоже может понадобиться помощь!Не забываем говорить "Спасибо"!Комментарии приветствуются!
Julia Fischer Hi-Res
[teatrix.ru].t11158.torrent 
Торрент: Зарегистрирован [ 2015-12-07 05:05 ] · B9F2FAD70603ADE11127C10DF2510E3DF99905B3

Скачать .torrent

Скачать

13 KB

Статус: проверено
Скачан: 1 раз
Размер: 1.11 GB
terms.php



Быстрый ответ

Имя:

      
Для отправки сообщений необходимо включить JavaScript
Показать сообщения:    

Текущее время: 03-Дек 12:35

Часовой пояс: UTC + 3


Вы можете начинать темы
Вы можете отвечать на сообщения
Вы не можете редактировать свои сообщения
Вы не можете удалять свои сообщения
Вы не можете голосовать в опросах
Вы не можете прикреплять файлы к сообщениям
Вы можете скачивать файлы