[TR24][OF] Aram Khachaturian/Хачатурян, Sergey Prokofiev/Прокофьев, Alexander Glazunov/Глазунов: Russian Violin Concertos - Julia Fischer, Russian National Orchestra/Российский национальный оркестр,Yakov Kreizberg/Яков Крейцберг - 2004 (Classical)


Статистика раздачи [Обновить пиров]
Размер:  1.33 GB   |    Зарегистрирован:  11 месяцев   |    Скачан:  0 раз

Полного источника не было: Никогда

 
   
 
 
 

[Цитировать]

Khachaturian, Prokofiev, Glazunov
Russian Violin Concertos
Julia Fischer
Russian National Orchestra
Yakov Kreizberg
-Год издания: 2004 | Жанр: Classical
Издатель: PentaTone Classics | Продолжительность: 01:19:23
Наличие сканов: Sleeve, Digital Booklet- -Контейнер: FLAC (*.flac) | Тип рипа: tracks
Разрядность: 24bit / 96kHz | Количество каналов: 2.0
-Треклист
Aram Khachaturian (1903-1978)
Violin Concerto in D minor
01. I. Allegro con fermezza (14:56)
02. II. Andante sostenuto (12:32)
03. III. Allegro vivace (9:19)
Сергей Прокофьев (1891-1953)
Violin concerto No. 1 in D Op. 19
04. I. Andantino - Andante assai (10:08)
05. II. Scherzo (Vivacissimo) (3:40)
06. III. Moderato – Allegro moderato – Più tranquillo (8:18)
Alexander Glazunov (1865-1936)
Violin Concerto in A minor Op. 82
07. I. Moderato – (4:20)
08. II. Andante – (10:30)
09. III. Allegro (5:40)

О релизе


"A very generously filled CD with three appealing Russian violin concertos played by this month’s ’One to watch’, Julia Fischer. [The RNO] under Yakov Kreizberg accompany superbly and if, as the booklet implies, this CD was made in two days then the concentration level must have been immense!" --James Jolly, The Gramohone
"Julia Fischer stands out. What’s most impressive on this disc is [Julia Fischer’s] revitalization of the Khatchaturian Violin Concerto... Fischer makes it sound fresh again. In part, the bloom results from her burnished tone (sensuous but firmly focused) and her confident technique (note the rhythmic definition of her opening gestures); simply as virtuoso display, this is a charismatic performance. But there’s a lot more than surface appeal. Because of her unwavering concentration, she manages...to make each detail, each swing in mood, register clearly, and because of her unflagging sense of shape, she makes sure that each element contributes to a lucid unfolding of the overall structure.... a nobility unmatched by any other recording I know...urgently recommended." --Peter J. Rabonowitz, International Record Review
“All in all, this is a very impressive CD debut for Fischer. I look forward to listening to it repeatedly in the coming months, and to hearing still more from her, in the future.” --Barry Brenesal, Fanfare
“ A striking début sees a young violinist doing full justice to a work she loves… The freshness of her way with the Khachaturian is immediately striking in the chattering figuration of the opening, and she brings a rare tenderness to the lyrical second subject…The clarity of Fischer’s performance in the finale brings lightness and sparkle…A unique coupling, superbly recorded.” --Edward Greenfield, Gramophone
“I don’t believe I have heard a better performance of the Khachaturian than Fischer’s, and with the hi-res surround sonics we have here a sure winner. The Prokofiev and Glazunov concertos prove excellent companions and also receive sparkling performances. As you can see by the time total, this disc is packed to the gills with great music.” --John Sunier, Audiophile Audition
Personnel:
Julia Fischer, violin
Russian National Orchestra
conducted by Yakov Kreizberg
Recorded: DZZ Studio 5, Moscow May 12th & 13th, 2004

ОтчётыДинамический диапазон

foobar2000 1.2.2 / Dynamic Range Meter 1.1.1log date: 2015-06-18 20:06:48
--------------------------------------------------------------------------------Analyzed: Julia Fischer, Russian National Orchestra, Yakov Kreizberg / Russian Violin Concertos--------------------------------------------------------------------------------
DR Peak RMS Duration Track--------------------------------------------------------------------------------DR17 -1.74 dB -27.75 dB 14:56 ?-Violin Concerto in D minor - I. Allegro con fermezzaDR18 -1.19 dB -26.40 dB 12:32 ?-Violin Concerto in D minor - II. Andante sostenutoDR17 -0.80 dB -24.64 dB 9:19 ?-Violin Concerto in D minor - III. Allegro vivaceDR16 -11.32 dB -34.43 dB 10:08 ?-Violin concerto No. 1 in D Op. 19 - I. Andantino - Andante assaiDR16 -4.74 dB -27.53 dB 3:40 ?-Violin concerto No. 1 in D Op. 19 - II. Scherzo (Vivacissimo)DR16 -5.07 dB -28.63 dB 8:18 ?-Violin concerto No. 1 in D Op. 19 - III. Moderato – Allegro moderato – Più tranquilloDR17 -9.60 dB -31.90 dB 4:20 ?-Violin Concerto in A minor Op. 82 - I. Moderato –DR15 -7.30 dB -31.17 dB 10:30 ?-Violin Concerto in A minor Op. 82 - II. Andante –DR16 -2.85 dB -24.84 dB 5:40 ?-Violin Concerto in A minor Op. 82 - III. Allegro--------------------------------------------------------------------------------
Number of tracks: 9Official DR value: DR16
Samplerate: 96000 HzChannels: 2Bits per sample: 24Bitrate: 2486 kbpsCodec: FLAC================================================================================

Скриншот спектра частот

Доп. информация

При скачивании, если необходимо, переименуйте папку, в которой будет находиться альбомБольшая просьба к скачавшим поддерживать раздачу! Помогайте другим, ведь вам тоже может понадобиться помощь!Не забываем говорить "Спасибо"!Комментарии приветствуются!
Julia Fischer Hi-Res
[teatrix.ru].t11160.torrent 
Торрент: Зарегистрирован [ 2015-12-07 05:05 ] · C956F29A3089C0167B7E15BC192CCFA7D9BC48A3

Скачать .torrent

Скачать

15 KB

Статус: проверено
Скачан: 0 раз
Размер: 1.33 GB
terms.php



Быстрый ответ

Имя:

      
Для отправки сообщений необходимо включить JavaScript
Показать сообщения:    

Текущее время: 06-Дек 11:12

Часовой пояс: UTC + 3


Вы можете начинать темы
Вы можете отвечать на сообщения
Вы не можете редактировать свои сообщения
Вы не можете удалять свои сообщения
Вы не можете голосовать в опросах
Вы не можете прикреплять файлы к сообщениям
Вы можете скачивать файлы