[TR24][OF][ECM] Franz Schubert - Sonatas, Impromptus & Moments Musicaux - András (Andras) Schiff - 2015 (Classical)


Статистика раздачи [Обновить пиров]
Размер:  2.16 GB   |    Зарегистрирован:  11 месяцев   |    Скачан:  0 раз

Полного источника не было: Никогда

 
   
 
 
 

[Цитировать]

Franz Schubert
András Schiff
-Год издания: 2015 | Жанр: Classical
Издатель: ECM New Series | Продолжительность: 02:25:39
Наличие сканов: Sleeve, Digital Booklet- -Контейнер: FLAC (*.flac) [b| Тип рипа: tracks
Разрядность: 24bit / 96kHz | Количество каналов: 2.0-András Schiff, fortepiano
Franz Brodmann Fortepiano (Vienna, circa 1820)
Recorded July 2014
Kammermusiksaal H. J. Abs, Beethoven Haus, Bonn
-Треклист
Franz Schubert (1787–1828)
Ungarische Melodie in h-moll, D. 817
01. Ungarische Melodie in h-moll (3:32)
Sonate in G-Dur, Op.78, D. 894
02. Molto moderato e cantabile (15:51)
03. Andante (7:11)
04. Menuett. Allegro moderato – Trio (4:16)
05. Allegretto (9:02)
Moments musicaux, Op.94, D. 780
06. Moderato in C-Dur (5:32)
07. Andantino in As-Dur (5:37)
08. Allegro moderato in f-moll (1:59)
09. Moderato in cis-moll (5:05)
10. Allegro vivace in f-moll (2:16)
11. Allegretto in As-Dur (6:49)
Allegretto in c-moll, D. 915
12. Allegretto in c-moll, D. 915 (4:56)
Vier Impromptus, Op.142, D. 935
13. Allegro moderato in f-moll (10:43)
14. Allegretto in As-Dur (5:59)
15. Andante in B-Dur (11:06)
16. Allegro scherzando in f-moll (6:39)
Sonate in B-Dur, D. 960
17. Molto moderato (18:34)
18. Andante sostenuto (7:49)
19. Scherzo. Allegro vivace con delicatezza – Trio (3:59)
20. Allegro ma non troppo – Presto (8:42)

О релизе


András Schiff’s reputation as one of the great interpreters of the work of Franz Schubert is long-established. He has always maintained that Schubert’s music is amongst the most moving ever written. Schiff underlined the point on his ECM New Series album with the C Major fantasies at the end of the 1990s, and he does so again on this remarkable recording, on which two Schubert sonatas, the "Musical Moments", four Impromptus (D 935), the "Hungarian Melody" and an Allegretto are addressed on a period instrument, the fortepiano. András Schiff: "My fortepiano was built by Franz Brodmann in Vienna in 1820. It is to me ideally suited to Schubert’s keyboard works. There is something quintessentially Viennese in its timbre, its tender mellowness, its melancholic cantabilità ... It is in the quiet and quietest moments when Schubert – like nobody else – touches our hearts.”
-
Sir András Schiff’s reputation as one of the great interpreters of the work of Franz Schubert is long-established and he has always maintained that Schubert’s music is amongst the most moving ever written. Schiff underlined the point on his ECM New Series album with the C Major fantasies at the end of the 1990s, and he does so again on this remarkable recording. Two Schubert Sonatas (D894 & D960), the six Moments musicaux, Four Impromptus (D 935), the ‘Hungarian Melody’ and an Allegretto are addressed on a period instrument, the fortepiano. The pianist says: “My fortepiano was built by Franz Brodmann in Vienna in 1820. It is to me ideally suited to Schubert’s keyboard works. There is something quintessentially Viennese in its timbre, its tender mellowness, its melancholic cantabilità...It is in the quiet and quietest moments when Schubert - like nobody else - touches our hearts.”
Elsewhere in an absorbing booklet essay, Schiff notes: “Finding the right venue is essential. The room must not be too large, its acoustics, proportions, resonances and atmosphere should be ideally attuned to the needs of the fortepiano. Such a hall is the Kemmermusiksaal H.J. Abs of the Beethoven-Haus in Bonn.” It was there that these memorable recordings were made in July 2014.

ОтчётыДинамический диапазон

foobar2000 1.2.2 / Dynamic Range Meter 1.1.1log date: 2015-06-14 10:45:24
--------------------------------------------------------------------------------Analyzed: András Schiff / Franz Schubert: Fortepiano--------------------------------------------------------------------------------
DR Peak RMS Duration Track--------------------------------------------------------------------------------DR14 -6.28 dB -26.95 dB 3:32 ?-Ungarische Melodie in h-moll, D. 817DR16 -2.44 dB -24.96 dB 15:51 ?-Sonate in G-Dur, Op.78, D. 894:Molto moderato e cantabileDR14 -3.80 dB -26.09 dB 7:11 ?-Sonate in G-Dur, Op.78, D. 894:AndanteDR14 -4.84 dB -24.16 dB 4:16 ?-Sonate in G-Dur, Op.78, D. 894:Menuett. Allegro moderato – TrioDR13 -5.09 dB -24.28 dB 9:02 ?-Sonate in G-Dur, Op.78, D. 894:AllegrettoDR15 -9.14 dB -29.08 dB 5:32 ?-Moments musicaux, Op.94, D. 780:Moderato in C-DurDR18 -5.93 dB -30.60 dB 5:37 ?-Moments musicaux, Op.94, D. 780:Andantino in As-DurDR13 -9.14 dB -28.24 dB 1:59 ?-Moments musicaux, Op.94, D. 780:Allegro moderato in f-mollDR15 -7.36 dB -27.95 dB 5:05 ?-Moments musicaux, Op.94, D. 780:Moderato in cis-mollDR13 -5.02 dB -21.57 dB 2:16 ?-Moments musicaux, Op.94, D. 780:Allegro vivace in f-mollDR17 -5.06 dB -27.90 dB 6:49 ?-Moments musicaux, Op.94, D. 780:Allegretto in As-DurDR14 -8.04 dB -28.56 dB 4:56 ?-Allegretto in c-moll, D. 915DR14 -5.89 dB -25.34 dB 10:43 ?-Vier Impromptus, Op.142, D. 935:Allegro moderato in f-mollDR15 -3.99 dB -26.32 dB 5:59 ?-Vier Impromptus, Op.142, D. 935:Allegretto in As-DurDR15 -5.44 dB -25.38 dB 11:06 ?-Vier Impromptus, Op.142, D. 935:Andante in B-DurDR16 -2.78 dB -23.89 dB 6:39 ?-Vier Impromptus, Op.142, D. 935:Allegro scherzando in f-mollDR16 -2.46 dB -25.04 dB 18:34 ?-Sonate in B-Dur, D. 960:Molto moderatoDR15 -8.75 dB -29.52 dB 7:49 ?-Sonate in B-Dur, D. 960:Andante sostenutoDR14 -6.53 dB -25.65 dB 3:59 ?-Sonate in B-Dur, D. 960:Scherzo. Allegro vivace con delicatezza – TrioDR14 -3.28 dB -23.31 dB 8:42 ?-Sonate in B-Dur, D. 960:Allegro ma non troppo – Presto--------------------------------------------------------------------------------
Number of tracks: 20Official DR value: DR15
Samplerate: 96000 HzChannels: 2Bits per sample: 24Bitrate: 2118 kbpsCodec: FLAC================================================================================

Скриншот спектра частот

Доп. информация

При скачивании, если необходимо, переименуйте папку, в которой будет находиться альбомБольшая просьба к скачавшим поддерживать раздачу! Помогайте другим, ведь вам тоже может понадобиться помощь!Не забываем говорить "Спасибо"!Комментарии приветствуются!
[teatrix.ru].t11161.torrent 
Торрент: Зарегистрирован [ 2015-12-07 05:05 ] · 58DCA0C0EBAD47BC803867168782FD47F3BE5EC4

Скачать .torrent

Скачать

13 KB

Статус: проверено
Скачан: 0 раз
Размер: 2.16 GB
terms.php



Быстрый ответ

Имя:

      
Для отправки сообщений необходимо включить JavaScript
Показать сообщения:    

Текущее время: 05-Дек 03:31

Часовой пояс: UTC + 3


Вы можете начинать темы
Вы можете отвечать на сообщения
Вы не можете редактировать свои сообщения
Вы не можете удалять свои сообщения
Вы не можете голосовать в опросах
Вы не можете прикреплять файлы к сообщениям
Вы можете скачивать файлы