[TR24][OF] Александр Скрябин / Alexander Scriabin - Vers la Flamme: Works for solo piano (Владимир Ашкенази / Vladimir Ashkenazy) - 2015 (Classical / Piano)


Статистика раздачи [Обновить пиров]
Размер:  1.28 GB   |    Зарегистрирован:  1 год 1 месяц   |    Скачан:  1 раз

Полного источника не было: 2 месяца 23 дня

 
   
 
 
 

[Цитировать]

Alexander Scriabin
Vers la Flamme

Vladimir Ashkenazy
-Год издания: 2015 | Жанр: Classical / Piano)
Издатель (лейбл): Decca | Продолжительность: 01:18:40
Наличие сканов: Sleeve, Digital Booklet- -Контейнер: FLAC (*.flac) | Тип рипа: tracks
Разрядность: 24bit /96kHz | Количество каналов: 2.0-Vladimir Ashkenazy, piano
Recorded: Potton Hall, Suffolk, 4 & 5 September,
29, 30 November & 1 December 2014
-Треклист
Alexander Scriabin (1872-1915)
3 Pieces for piano, Op.2
01. Etude No.1 in C sharp minor - Andante (2:46)
10 Mazurkas, Op.3 (1889)
02. No.6 in C sharp minor - Scherzando (2:29)
03. No.7 in E minor - Con passione (3:32)
04. No.10 in E flat minor - Sotto voce (5:58)
12 Etudes For Piano, Op.8
05. No.5 in E major - Brioso (2:14)
06. No.7 in B flat minor - Presto tenebroso, agitato (1:47)
07. No.10 in D flat major - Allegro (1:55)
08. No.11 in B flat minor - Andante (4:13)
09. No.12 in D sharp minor - Patetico (2:20)
4 Preludes, Op.22
10. No.1 in G sharp major - Andante (1:35)
11. No.2 in C sharp minor - Andante (1:09)
12. No.3 in B major - Allegretto (1:10)
13. No.4 in B minor - Andantino (1:10)
8 Etudes, Op.42
14. No.1 in D flat major - Presto (1:47)
15. No.2 in F sharp minor - Crotchet=112 (0:55)
16. No.3 in F sharp major - Prestissimo (1:00)
17. No.4 in F sharp major - Andante (2:37)
18. No.5 in C sharp minor - Affannato (3:03)
19. No.6 in D flat major - Esaltato (1:53)
20. No.7 in F minor - Agitato (1:00)
21. No.8 in E flat major - Allegro (2:41)
Trois Morceaux, Op.45
22. I. Feuillet d'album - Andante piacevole (0:57)
23. II. Poeme fantasque - Presto (0:27)
24. III. Prelude - Andante (1:10)
Quasi-valse Op.47
25. Quasi-valse (1:19)
Trois Morceaux, Op.52
26. I. Poeme - Lento - Piu vivo - Tempo I (1:41)
27. II. Enigme - Etrange, capricieusement (0:54)
28. III. Poeme languide - Pas vite (0:57)
2 Pieces, Op.57
29. I. Desir (1:18)
30. II. Caresse dansee (1:15)
Feuillet d'album Op.58
31. Con delicatezza (1:23)
2 Poèmes, Op.63
32. I. Masque - Allegretto. Avec une douceaur cachee (0:55)
33. II. Etrangete - Gracieux, delicat (1:35)
2 Poèmes, Op.69
34. I. Allegretto. Tendre, delicat (1:51)
35. II. Allegretto. Aigu, capricieux (1:05)
2 Poèmes, Op.71
36. I. Fantastique (1:47)
37. II. En revant, avec une grande douceur (1:53)
Vers la flamme Op.72
38. Allegro moderato (5:02)
5 Preludes, Op.74
39. No.1 Douloureux, dechirant (0:53)
40. No.2 Tres lent, contemplatif (0:56)
41. No.3 Allegro drammatico (0:44)
42. No.4 Lent, vague, indecis (1:14)
43. No.5 Fier, belliqueux (1:09)
Yulian Alexandrovich Scriabin (1908-1919)
2 Preludes, Op.3
44. No.1 (1:04)

О релизе


Vladimir Ashkenazy turns to the fine art of the piano miniature in this album, unlocking the poetic expression and vibrant colours of forty exquisite pieces by Alexander Scriabin (1872–1915). Vers la flame, released in April 2015 to mark the centenary of Scriabin’s death, opens with the C sharp minor Étude Op.2 No.1, written during its composer’s mid-teens, and comprises such late masterworks as the album’s title track and the five Préludes Op.74.
"... Reflective and sometimes indulgent, very much viewing these pieces through the prism of Romanticism rather than that of modernism. Ashkenazy is at his most winning in the early Chopinesque pieces, the Mazurkas Op 3, the "Studies" Op 8 and Op 42 especially, but his account of the phantasmagoric "Vers la Flamme", which gives the disc its title, as well as the set of late Preludes Op 74, are thrillingly persuasive, too, and he adds a Prelude by Yulian Alexandrovich Scriabin, the composer's son, who was drowned in 1919 at the age of 11, as a touching epilogue." —Andrew Clements, The Guardian

ОтчётыДинамический диапазон

foobar2000 1.2.2 / Dynamic Range Meter 1.1.1log date: 2015-05-25 10:50:29
--------------------------------------------------------------------------------Analyzed: Vladimir Ashkenazy / Scriabin: Vers la Flamme--------------------------------------------------------------------------------
DR Peak RMS Duration Track--------------------------------------------------------------------------------DR12 -4.17 dB -23.42 dB 2:46 ?-Etude Op.2 No.1 in C sharp minor - AndanteDR15 -6.26 dB -25.28 dB 2:29 ?-Mazurkas Op.3 No.6 in C sharp minor - ScherzandoDR13 -3.75 dB -22.85 dB 3:32 ?-Mazurkas Op.3 No.7 in E minor - Con passioneDR15 -2.42 dB -22.90 dB 5:58 ?-Mazurkas Op.3 No.10 in E flat minor - Sotto voceDR12 -1.44 dB -17.71 dB 2:14 ?-Etudes Op.8 No.5 in E major - BriosoDR11 -3.82 dB -19.62 dB 1:47 ?-Etudes Op.8 No.7 in B flat minor - Presto tenebroso, agitatoDR12 -4.54 dB -20.03 dB 1:55 ?-Etudes Op.8 No.10 in D flat major - AllegroDR12 -8.34 dB -24.25 dB 4:13 ?-Etudes Op.8 No.11 in B flat minor - AndanteDR11 -0.18 dB -14.01 dB 2:20 ?-Etudes Op.8 No.12 in D sharp minor - PateticoDR12 -1.75 dB -21.67 dB 1:35 ?-Preludes Op.22 No.1 in G sharp major - AndanteDR10 -9.50 dB -26.68 dB 1:09 ?-Preludes Op.22 No.2 in C sharp minor - AndanteDR12 -8.68 dB -26.51 dB 1:10 ?-Preludes Op.22 No.3 in B major - AllegrettoDR11 -8.43 dB -24.25 dB 1:10 ?-Preludes Op.22 No.4 in B minor - AndantinoDR11 -5.83 dB -20.44 dB 1:47 ?-Etudes Op.42 No.1 in D flat major - PrestoDR11 -8.21 dB -24.48 dB 0:55 ?-Etudes Op.42 No.2 in F sharp minor - Crotchet=112DR12 -8.71 dB -26.99 dB 1:00 ?-Etudes Op.42 No.3 in F sharp major - PrestissimoDR12 -8.78 dB -24.92 dB 2:37 ?-Etudes Op.42 No.4 in F sharp major - AndanteDR12 -0.72 dB -15.86 dB 3:03 ?-Etudes Op.42 No.5 in C sharp minor - AffannatoDR10 -6.25 dB -18.74 dB 1:53 ?-Etudes Op.42 No.6 in D flat major - EsaltatoDR10 -5.42 dB -19.40 dB 1:00 ?-Etudes Op.42 No.7 in F minor - AgitatoDR13 -4.32 dB -20.98 dB 2:41 ?-Etudes Op.42 No.8 in E flat major - AllegroDR10 -7.22 dB -24.62 dB 0:57 ?-Morceaux Op.45 - I. Feuillet d'album - Andante piacevoleDR10 -5.06 dB -20.00 dB 0:27 ?-Morceaux Op.45 - II. Poeme fantasque - PrestoDR11 -9.20 dB -24.96 dB 1:10 ?-Morceaux Op.45 - III. Prelude - AndanteDR12 -1.37 dB -19.70 dB 1:19 ?-Quasi-valse Op.47DR11 -7.77 dB -23.04 dB 1:41 ?-Morceaux Op.52 - I. Poeme - Lento - Piu vivo - Tempo IDR11 -6.74 dB -22.38 dB 0:54 ?-Morceaux Op.52 - II. Enigme - Etrange, capricieusementDR12 -6.29 dB -24.47 dB 0:57 ?-Morceaux Op.52 - III. Poeme languide - Pas viteDR14 -4.87 dB -27.09 dB 1:18 ?-Pieces Op.57 - I. DesirDR11 -12.65 dB -27.75 dB 1:15 ?-Pieces Op.57 - II. Caresse danseeDR11 -11.43 dB -28.04 dB 1:23 ?-Feuillet d'album Op.58 - Con delicatezzaDR12 -8.16 dB -25.24 dB 0:55 ?-Poemes Op.63 - I. Masque - Allegretto. Avec une douceaur cacheeDR12 -8.29 dB -27.06 dB 1:35 ?-Poemes Op.63 - II. Etrangete - Gracieux, delicatDR12 -8.93 dB -28.13 dB 1:51 ?-Poemes Op.69 - I. Allegretto. Tendre, delicatDR13 -5.05 dB -25.07 dB 1:05 ?-Poemes Op.69 - II. Allegretto. Aigu, capricieuxDR13 -5.10 dB -22.07 dB 1:47 ?-Poemes Op.71 - I. FantastiqueDR12 -6.24 dB -22.45 dB 1:53 ?-Poemes Op.71 - II. En revant, avec une grande douceurDR13 -1.16 dB -18.89 dB 5:02 ?-Vers la flamme Op.72 - Allegro moderatoDR13 -3.39 dB -21.32 dB 0:53 ?-Preludes Op.74 No.1 Douloureux, dechirantDR10 -12.02 dB -28.30 dB 0:56 ?-Preludes Op.74 No.2 Tres lent, contemplatifDR12 -3.33 dB -19.11 dB 0:44 ?-Preludes Op.74 No.3 Allegro drammaticoDR13 -6.94 dB -25.79 dB 1:14 ?-Preludes Op.74 No.4 Lent, vague, indecisDR11 -0.97 dB -16.14 dB 1:09 ?-Preludes Op.74 No.5 Fier, belliqueuxDR13 -2.62 dB -23.06 dB 1:04 ?-Prelude Op.3 No.1--------------------------------------------------------------------------------
Number of tracks: 44Official DR value: DR12
Samplerate: 96000 HzChannels: 2Bits per sample: 24Bitrate: 2232 kbpsCodec: FLAC================================================================================

Скриншот спектра частот

Доп. информация

При скачивании, если необходимо, переименуйте папку, в которой будет находиться альбомБольшая просьба к скачавшим поддерживать раздачу! Помогайте другим, ведь вам тоже может понадобиться помощь!Не забываем говорить "Спасибо"!Комментарии приветствуются!
[teatrix.ru].t11163.torrent 
Торрент: Зарегистрирован [ 2015-12-07 05:05 ] · 37E71B11B77E4DA0B67225C2EE0CE361AD1817D5

Скачать .torrent

Скачать

17 KB

Статус: проверено
Скачан: 1 раз
Размер: 1.28 GB
terms.php



Быстрый ответ

Имя:

      
Для отправки сообщений необходимо включить JavaScript
Показать сообщения:    

Текущее время: 25-Янв 00:21

Часовой пояс: UTC + 3


Вы можете начинать темы
Вы можете отвечать на сообщения
Вы не можете редактировать свои сообщения
Вы не можете удалять свои сообщения
Вы не можете голосовать в опросах
Вы не можете прикреплять файлы к сообщениям
Вы можете скачивать файлы