[TR24][OF] Modest Mussorgsky: Pictures at an Exhibition / Модест Мусоргский: "Картинки с выставки"; Robert Schumann: Fantasie Op. 17 (Paul Lewis) - 2015 (Classical / Piano)


Статистика раздачи [Обновить пиров]
Размер:  900 MB   |    Зарегистрирован:  1 год   |    Скачан:  0 раз

Полного источника не было: Никогда

 
   
 
 
 

[Цитировать]

Modest Mussorgsky: Pictures at an Exhibition
Robert Schumann: Fantasie Op. 17
Paul Lewis
- Год издания: 2015
Жанр: Classical / Piano
Издатель (лейбл): Harmonia Mundi
Продолжительность: 01:04:40
Наличие сканов: Sleeve, Digital Booklet- -Контейнер: FLAC (*.flac)
Тип рипа: tracks
Разрядность: 24bit / 96kHz
Количество каналов: 2.0
-
Paul Lewis, piano
Recorded: November 2010 and February 2014, Teldex Studio Berlin-

Треклист

Modest Petrovich Mussorgsky (1839-1881)
Pictures at an Exhibition
Promenade:
01. I. The gnome (3:54)
02. II. The old castle (5:18)
03. III. The Tuileries Gardens (Children quarrelling after playing) (1:27)
04. IV. Bydlo. (3:00)
Promenade:
05. V. Ballet of the unhatched chicks (1:49)
06. VI. "Samuel" Goldenberg und "Schmüyle". (2:20)
Promenade:
07. VII. The marketplace in Limoges (2:41)
08. VIII. The catacombs (2:21)
With the dead in a dead language (Promenade):
09. IX.The hut on fowl's legs (Baba Yaga) (5:20)
10. X. The great gate of Kiev (5:35)
Robert Schumann (1810-1856)
Fantasie in C Major, Op. 17
11. I. Durchaus phantastisch und leidenschaftlich vorzutragen (12:19)
12. II. Mäßig. Durchaus energisch (8:11)
13. III. Langsam getragen. Durchweg leise zu halten (10:26)

О релизе


Atmospheric and controlled
In 1870, the architect, sculptor and painter Viktor Hartmann (born in 1834) was invited by Vladimir Stasov, the most influential Russian art critic of his time, to join the ‘Group of Five’, a St Petersburg-based circle of composers that, in addition to Mussorgsky, included Borodin, Balakirev, Cui, and Rimsky-Korsakov. The members of this ‘Mighty Handful’ had set themselves the spiritual task of establishing a national Russian music free of western influences. Just three years later, in August 1873, Hartmann died of an aneurysm; he was not yet 40. ‘What misfortune! O greatly suffering Russian art!’ wrote the deeply affected Mussorgsky, lamenting the loss of his friend. Along with Stasov, he championed the cause of a memorial exhibition in honour of his intellectual fellow-spirit. Stimulated by this much-admired retrospective, in the spring of 1874, which presented some 400 pictures from different phases of the artist’s creative career, Mussorgsky decided to erect a musical monument to the dead man as well. He threw himself feverishly into the work. When the piano cycle was completed on 22 June 1874, the manuscript bore the inscription: ‘Dedicated to Vladimir Vasilievich Stasov. Pictures at an Exhibition. In Memory of Viktor Hartmann.’ Mussorgsky created here something subtler and more ambivalent than Hartmann’s paintings might suggest.
Alongside the dazzling virtuosity they call for, Paul Lewis’s unexpected coupling reveals the purely musical qualities of these two 19th-century masterpieces.
Lewis's latest recording, Schubert's Late Piano Sonatas, completed his acclaimed Schubert cycle, prompting Gramophone to call him 'one of the great Schubertians of our time.' The album reached No. 9 on the Billboard Classical Chart and made The 2014 Want List in Fanfare Magazine. His multi-award winning discography for harmonia mundi includes the complete Beethoven piano sonatas, concertos, and the Diabelli Variations, Liszt's B minor Sonata and other late works, and all of Schubert's major piano works from the last six years of his life, including the 3 song cycles with tenor Mark Padmore.
'Time and again, you marvel at the confidence and sureness of Lewis's playing... It's the kind of playing, in fact, where comparisons cease to matter.' (Gramophone)

ОтчётыДинамический диапазон

foobar2000 1.2.2 / Dynamic Range Meter 1.1.1log date: 2015-05-21 20:37:52
--------------------------------------------------------------------------------Analyzed: Paul Lewis / Mussorgsky: Pictures at an Exhibition / Schumann: Fantasie Op. 17--------------------------------------------------------------------------------
DR Peak RMS Duration Track--------------------------------------------------------------------------------DR14 -0.30 dB -19.66 dB 3:54 ?-Pictures at an Exhibition - Promenade. I. The gnomeDR14 -12.83 dB -31.62 dB 5:18 ?-Pictures at an Exhibition - Promenade. II. The old castleDR12 -6.06 dB -23.59 dB 1:27 ?-Pictures at an Exhibition - Promenade. III. The Tuileries Gardens (Children quarrelling after playing)DR13 -1.55 dB -18.92 dB 3:00 ?-Pictures at an Exhibition - IV. Bydlo.DR14 -6.57 dB -25.42 dB 1:49 ?-Pictures at an Exhibition - Promenade. V. Ballet of the unhatched chicksDR14 -1.48 dB -20.97 dB 2:20 ?-Pictures at an Exhibition - VI. "Samuel" Goldenberg und "Schmüyle".DR11 -2.87 dB -17.31 dB 2:41 ?-Pictures at an Exhibition - Promenade. VII. The marketplace in LimogesDR16 -0.89 dB -25.27 dB 2:21 ?-Pictures at an Exhibition - VIII. The catacombsDR13 -0.30 dB -18.61 dB 5:20 ?-Pictures at an Exhibition - With the dead in a dead language (Promenade). IX.The hut on fowl's legs (Baba Yaga)DR13 -0.30 dB -17.17 dB 5:35 ?-Pictures at an Exhibition - X. The great gate of KievDR15 -0.61 dB -22.18 dB 12:19 ?-Fantasie in C Major, Op. 17 - I. Durchaus phantastisch und leidenschaftlich vorzutragenDR14 -0.98 dB -19.91 dB 8:11 ?-Fantasie in C Major, Op. 17 - II. Mäßig. Durchaus energischDR17 -3.28 dB -26.71 dB 10:26 ?-Fantasie in C Major, Op. 17 - III. Langsam getragen. Durchweg leise zu halten--------------------------------------------------------------------------------
Number of tracks: 13Official DR value: DR14
Samplerate: 96000 HzChannels: 2Bits per sample: 24Bitrate: 1641 kbpsCodec: FLAC================================================================================

Скриншот спектра частот

Доп. информация

При скачивании, если необходимо, переименуйте папку, в которой будет находиться альбомБольшая просьба к скачавшим поддерживать раздачу! Помогайте другим, ведь вам тоже может понадобиться помощь!Не забываем говорить "Спасибо"!Комментарии приветствуются!
[teatrix.ru].t11164.torrent 
Торрент: Зарегистрирован [ 2015-12-07 05:05 ] · 66D6AE2839590B30346BDAD37F3F1E4CFF761062

Скачать .torrent

Скачать

20 KB

Статус: проверено
Скачан: 0 раз
Размер: 900 MB
terms.php



Быстрый ответ

Имя:

      
Для отправки сообщений необходимо включить JavaScript
Показать сообщения:    

Текущее время: 08-Дек 23:07

Часовой пояс: UTC + 3


Вы можете начинать темы
Вы можете отвечать на сообщения
Вы не можете редактировать свои сообщения
Вы не можете удалять свои сообщения
Вы не можете голосовать в опросах
Вы не можете прикреплять файлы к сообщениям
Вы можете скачивать файлы