[TR24][OF] Toyohiko Satoh - Bach & Weiss: Lute Music - 2015 (Classical)


Статистика раздачи [Обновить пиров]
Размер:  1.36 GB   |    Зарегистрирован:  11 месяцев 27 дней   |    Скачан:  0 раз

Полного источника не было: Никогда

 
   
 
 
 

[Цитировать]

Toyohiko Satoh
Bach & Weiss: Lute Music
- Год издания: 2015
Жанр: Classical
Издатель (лейбл): Carpe Diem
Продолжительность: 01:08:42
Наличие сканов: Sleeve, Digital Booklet- -
Sylvius Leopold Weiss (1687-1750)
Ciacona E-Flat Major
01. Ciacona E-Flat Major (6:24)
Johann Sebastian Bach (1685-1750)
Cello Suite No. 1 in G Major, BWV 1007 (arr. Toyohiko Satoh for lute)
02. Prelude (3:25)
03. Allemande (5:42)
04. Courante (3:55)
05. Sarabande (3:08)
06. Menuet I-II (4:09)
07. Gigue (2:12)
Sylvius Leopold Weiss
Ciacona A Major
08. Ciacona A Major (4:07)
Johann Sebastian Bach
Cello Suite No. 3 in C Major, BWV 1009 (arr. Toyohiko Satoh for lute)
09. Prelude (5:19)
10. Allemande (5:10)
11. Courante (4:29)
12. Sarabande (4:16)
13. Bouree I-II (5:04)
14. Gigue (4:51)
Sylvius Leopold Weiss
Ciacona G minor
15. Ciacona G minor (6:31)
-
Контейнер: FLAC (*.flac)
Тип рипа: tracks
Разрядность: 24bit / 96kHz
Количество каналов: 2.0
-О релизе

The new solo CD of Toyohiko Satoh, the 72 year old Japanese lutenist who is considered my many as one of the most influential lute players of the last century, presents a well-known repertoire of baroque lute music. Mr. Satoh was the first lutenist to record Bach’s lute music on LP in the 70s (Phillips). Now he returns to this music 40 years later, delivering a completely different rendering of these iconic pieces. His playing has been influenced much by his studies of traditional Japanese arts such as tea ceremony, No-theater and Zen meditation. So here we are presented a recording that draws from the deep silence within, from the awareness of everything in the universe being connected, and from the understanding of Bach’s music as a universal, almost superhuman symbol of completeness.
Toyohiko Satoh, lute

ОтчётыДинамический диапазон

foobar2000 1.2.2 / Dynamic Range Meter 1.1.1log date: 2015-05-09 16:18:42
--------------------------------------------------------------------------------Analyzed: Toyohiko Satoh / Bach & Weiss: lute music--------------------------------------------------------------------------------
DR Peak RMS Duration Track--------------------------------------------------------------------------------DR15 -1.07 dB -17.84 dB 6:24 ?-S.L. Weiss: Ciacona E flat MajorDR14 -1.07 dB -17.67 dB 3:25 ?-J.S. Bach: BWV 1007 Suite C Major PreludeDR14 -1.07 dB -16.92 dB 5:42 ?-J.S. Bach: BWV 1007 Suite C Major AllemandeDR14 -1.06 dB -16.85 dB 3:55 ?-J.S. Bach: BWV 1007 Suite C Major CouranteDR14 -1.39 dB -19.34 dB 3:08 ?-J.S. Bach: BWV 1007 Suite C Major SarabandeDR13 -1.07 dB -17.13 dB 4:09 ?-J.S. Bach: BWV 1007 Suite C Major Menuet I + IIDR15 -1.07 dB -17.48 dB 2:12 ?-J.S. Bach: BWV 1007 Suite C Major GigueDR13 -1.07 dB -17.28 dB 4:07 ?-S.L. Weiss: Ciacona A MajorDR14 -1.06 dB -17.67 dB 5:19 ?-J.S. Bach: BWV 1009 Suite G Major PreludeDR13 -1.07 dB -15.52 dB 5:10 ?-J.S. Bach: BWV 1009 Suite G Major AllemandeDR13 -1.07 dB -16.18 dB 4:29 ?-J.S. Bach: BWV 1009 Suite G Major CouranteDR15 -1.07 dB -19.51 dB 4:16 ?-J.S. Bach: BWV 1009 Suite G Major SarabandeDR13 -1.07 dB -16.39 dB 5:04 ?-J.S. Bach: BWV 1009 Suite G Major Bouree I + IIDR14 -1.07 dB -16.63 dB 4:51 ?-J.S. Bach: BWV 1009 Suite G Major GigueDR14 -1.07 dB -17.94 dB 6:31 ?-S.L. Weiss: Ciacona G minor--------------------------------------------------------------------------------
Number of tracks: 15Official DR value: DR14
Samplerate: 96000 HzChannels: 2Bits per sample: 24Bitrate: 2741 kbpsCodec: FLAC================================================================================

Скриншот спектра частот

Доп. информация

При скачивании, если необходимо, переименуйте папку, в которой будет находиться альбомБольшая просьба к скачавшим поддерживать раздачу! Помогайте другим, ведь вам тоже может понадобиться помощь!Не забываем говорить "Спасибо"!Комментарии приветствуются!
[teatrix.ru].t11165.torrent 
Торрент: Зарегистрирован [ 2015-12-07 05:05 ] · D26A623EEB987D5AED0EB69EA0DE74A19B438D8A

Скачать .torrent

Скачать

16 KB

Статус: проверено
Скачан: 0 раз
Размер: 1.36 GB
terms.php



Быстрый ответ

Имя:

      
Для отправки сообщений необходимо включить JavaScript
Показать сообщения:    

Текущее время: 03-Дек 22:46

Часовой пояс: UTC + 3


Вы можете начинать темы
Вы можете отвечать на сообщения
Вы не можете редактировать свои сообщения
Вы не можете удалять свои сообщения
Вы не можете голосовать в опросах
Вы не можете прикреплять файлы к сообщениям
Вы можете скачивать файлы