[TR24][SM][OF] Johann Sebastian Bach - Six Partitas - Andras Schiff - 2009 [ECM New Series] (Classical)


Статистика раздачи [Обновить пиров]
Размер:  1.77 GB   |    Зарегистрирован:  11 месяцев 27 дней   |    Скачан:  1 раз
Сидов:  1  [  0 KB/s  ]   Подробная статистика пиров
 
   
 
 
 

[Цитировать]

·
·
·Johann Sebastian Bach (1685–1750)Жанр: Keyboard
Носитель: Official Digital Download
Год издания диска: 2009
Издатель(лейбл): © ECM Records GmbH
Номер по каталогу: 2001/02
Продолжительность: 2:12:49
Наличие сканов в содержимом раздачи: cover & booklet
Контейнер: FLAC (*.flac)
Разрядность: 24/96
Количество каналов: 2.0
Формат: tracks
Источник: qobuz.com
Pелизер: WEB (thanks to the original customer)
András Schiff piano

Треклист

Partita V In G Major (BWV 829)
1-01 Praeambulum 2:11
1-02 Allemande 4:16
1-03 Corrente 1:34
1-04 Sarabande 4:07
1-05 Tempo Di Minuetta 2:23
1-06 Passepied 1:30
1-07 Gigue 3:45
Partita III In a Minor (BWV 827)
1-08 Fantasia 1:50
1-09 Allemande 2:47
1-10 Corrente 2:40
1-11 Sarabande 3:14
1-12 Burlesca 2:00
1-13 Scherzo 0:59
1-14 Gigue 2:55
Partita I In B-Flat Major (BWV 825)
1-15 Praeludium 1:52
1-16 Allemande 3:09
1-17 Corrente 2:42
1-18 Sarabande 4:25
1-19 Menuet I 1:15
1-20 Menuet II 1:17
1-21 Gigue 2:10
Partita II In c Minor (BWV 826)
1-22 Sinfonia 4:17
1-23 Allemande 4:31
1-24 Courante 2:05
1-25 Sarabande 3:01
1-26 Rondeau 1:27
1-27 Capriccio 3:18
Partita IV In D Major (BWV 828)
2-01 Ouverture 5:50
2-02 Allemande 7:56
2-03 Courante 3:19
2-04 Aria 2:04
2-05 Sarabande 5:55
2-06 Menuet 1:20
2-07 Gigue 3:34
Partita VI In e Minor (BWV 830)
2-08 Toccata 7:19
2-09 Allemande 3:40
2-10 Corrente 4:47
2-11 Air 1:41
2-12 Sarabande 5:33
2-13 Tempo Di Gavotta 1:57
2-14 Gigue 5:40

Dynamic Range Meter

foobar2000 1.2.6 / Dynamic Range Meter 1.1.1
log date: 2015-05-10 02:48:27
--------------------------------------------------------------------------------
Analyzed: András Schiff / J.S. Bach : Six Partitas
--------------------------------------------------------------------------------
DR Peak RMS Duration Track
--------------------------------------------------------------------------------
DR13 -1.82 dB -18.01 dB 2:12 01-Partita No.5 In G, BWV 829:Praeambulum
DR12 -3.96 dB -19.45 dB 4:17 02-Partita No.5 In G, BWV 829:Allemande
DR11 -3.30 dB -17.19 dB 1:35 03-Partita No.5 In G, BWV 829:Corrente
DR13 -5.50 dB -22.16 dB 4:08 04-Partita No.5 In G, BWV 829:Sarabande
DR13 -5.92 dB -23.19 dB 2:23 05-Partita No.5 In G, BWV 829:Tempo di Minuetta
DR12 -2.80 dB -17.14 dB 1:31 06-Partita No.5 In G, BWV 829:Passepied
DR13 -0.24 dB -16.29 dB 3:47 07-Partita No.5 In G, BWV 829:Gigue
DR11 -2.66 dB -16.56 dB 1:51 08-Partita No.3 In A Minor, BWV 827:Fantasia
DR12 -4.00 dB -19.21 dB 2:48 09-Partita No.3 In A Minor, BWV 827:Allemande
DR11 -2.63 dB -16.36 dB 2:40 10-Partita No.3 In A Minor, BWV 827:Corrente
DR12 -3.98 dB -20.53 dB 3:14 11-Partita No.3 In A Minor, BWV 827:Sarabande
DR12 -4.07 dB -17.82 dB 2:00 12-Partita No.3 In A Minor, BWV 827:Burlesca
DR11 -3.48 dB -17.73 dB 1:00 13-Partita No.3 In A Minor, BWV 827:Scherzo
DR13 -0.12 dB -16.51 dB 2:57 14-Partita No.3 In A Minor, BWV 827:Gigue
DR12 -2.12 dB -18.59 dB 1:53 15-Partita No.1 In B Flat, BWV 825:Praeludium
DR12 -2.73 dB -18.89 dB 3:09 16-Partita No.1 In B Flat, BWV 825:Allemande
DR12 -3.53 dB -19.10 dB 2:43 17-Partita No.1 In B Flat, BWV 825:Corrente
DR12 -3.80 dB -20.58 dB 4:26 18-Partita No.1 In B Flat, BWV 825:Sarabande
DR11 -5.14 dB -20.40 dB 1:16 19-Partita No.1 In B Flat, BWV 825:Menuet I
DR12 -4.46 dB -20.23 dB 1:18 20-Partita No.1 In B Flat, BWV 825:Menuet II
DR12 -3.39 dB -20.37 dB 2:12 21-Partita No.1 In B Flat, BWV 825:Gigue
DR13 -0.24 dB -17.32 dB 4:17 22-Partita No.2 In C Minor, BWV 826:Sinfonia
DR13 -2.93 dB -18.87 dB 4:32 23-Partita No.2 In C Minor, BWV 826:Allemande
DR12 -1.42 dB -15.42 dB 2:05 24-Partita No.2 In C Minor, BWV 826:Courante
DR11 -6.52 dB -21.54 dB 3:01 25-Partita No.2 In C Minor, BWV 826:Sarabande
DR12 -1.90 dB -18.62 dB 1:28 26-Partita No.2 In C Minor, BWV 826:Rondeau
DR12 -0.15 dB -15.51 dB 3:19 27-Partita No.2 In C Minor, BWV 826:Capriccio
--------------------------------------------------------------------------------
Number of tracks: 27
Official DR value: DR12
Samplerate: 96000 Hz
Channels: 2
Bits per sample: 24
Bitrate: 1947 kbps
Codec: FLAC
================================================================================
foobar2000 1.2.6 / Dynamic Range Meter 1.1.1
log date: 2015-05-10 03:06:01
--------------------------------------------------------------------------------
Analyzed: András Schiff / J.S. Bach : Six Partitas
--------------------------------------------------------------------------------
DR Peak RMS Duration Track
--------------------------------------------------------------------------------
DR13 -0.27 dB -16.53 dB 5:50 01-Partita No.4 In D, BWV 828:Ouverture
DR12 -5.51 dB -20.53 dB 7:57 02-Partita No.4 In D, BWV 828:Allemande
DR13 -1.63 dB -17.23 dB 3:20 03-Partita No.4 In D, BWV 828:Courante
DR11 -3.93 dB -18.24 dB 2:05 04-Partita No.4 In D, BWV 828:Aria
DR13 -4.13 dB -22.94 dB 5:56 05-Partita No.4 In D, BWV 828:Sarabande
DR13 -0.54 dB -17.18 dB 1:21 06-Partita No.4 In D, BWV 828:Menuet
DR11 -1.64 dB -16.29 dB 3:37 07-Partita No.4 In D, BWV 828:Gigue
DR14 -0.13 dB -17.46 dB 7:20 08-Partita No.6 In E Minor, BWV 830:Toccata
DR12 -4.93 dB -20.22 dB 3:41 09-Partita No.6 In E Minor, BWV 830:Allemanda
DR16 -0.11 dB -19.89 dB 4:48 10-Partita No.6 In E Minor, BWV 830:Corrente
DR11 -5.30 dB -19.50 dB 1:41 11-Partita No.6 In E Minor, BWV 830:Air
DR13 -0.20 dB -16.64 dB 5:33 12-Partita No.6 In E Minor, BWV 830:Sarabande
DR11 -4.25 dB -19.28 dB 1:58 13-Partita No.6 In E Minor, BWV 830:Tempo di Gavotta
DR13 -0.17 dB -15.47 dB 5:40 14-Partita No.6 In E Minor, BWV 830:Gigue
--------------------------------------------------------------------------------
Number of tracks: 14
Official DR value: DR13
Samplerate: 96000 Hz
Channels: 2
Bits per sample: 24
Bitrate: 1987 kbps
Codec: FLAC
================================================================================
[teatrix.ru].t11166.torrent 
Торрент: Зарегистрирован [ 2015-12-07 05:05 ] · 8AC17B0C9E5611F4F7F9BC3E0671E9B4A65529FA

Скачать .torrent

Скачать

22 KB

Статус: проверено
Скачан: 1 раз
Размер: 1.77 GB
terms.php



Быстрый ответ

Имя:

      
Для отправки сообщений необходимо включить JavaScript
Показать сообщения:    

Текущее время: 03-Дек 22:48

Часовой пояс: UTC + 3


Вы можете начинать темы
Вы можете отвечать на сообщения
Вы не можете редактировать свои сообщения
Вы не можете удалять свои сообщения
Вы не можете голосовать в опросах
Вы не можете прикреплять файлы к сообщениям
Вы можете скачивать файлы