[TR24][OF] Maria Callas - Callas Sings Great Arias From French Operas [1961] - Maria Callas, Orchestre National de la Radiodiffusion Française, Georges Prêtre (Pretre) - 2014 (Classical, Opera)


Статистика раздачи [Обновить пиров]
Размер:  1.01 GB   |    Зарегистрирован:  11 месяцев   |    Скачан:  0 раз
Сидов:  1  [  0 KB/s  ]   Подробная статистика пиров
 
   
 
 
 

[Цитировать]

MARIA CALLAS
Great Arias From French Operas
Orchestre National de la Radiodiffusion Française · Georges Prêtre
- Год издания: 2014
Жанр: Classical, Opera
Издатель (лейбл): Warner Classics
Продолжительность: 00:49:44
Наличие сканов: Covers, Digital Booklet
- -
Christoph Willibald Gluck (1714-1787)
Orphée et Eurydice
01. Act 4: "J'ai perdu mon Eurydice" (Orfeo) (4:28)
Alceste
02. Act 1: "Divinités du Styx" (Alceste) (4:27)
Georges Bizet (1838-1875)
Carmen
03. Act 1: "L'amour est un oiseau rebelle" (Carmen) [Habanera] (4:05)
04. Act 1: "Près des remparts de Séville" (Carmen) [Seguédille] (2:05)
Camille Saint-Saens (1835-1921)
Samson et Dalila
05. Act 1: "Printemps qui commence" (Dalila) (5:18)
06. Act 2: "Samson, recherchant ma présence...Amour! viens aider ma faiblesse!" (Dalila) (4:13)
07. Act 2: "Mon coeur s'ouvre à ta voix" (Dalila) (5:21)
Charles Gounod (1818-1893)
Roméo et Juliette
08. Act 1: "Je veux vivre" (Juliet) [Waltz] (3:41)
Ambroise Thomas (1811-1896)
Mignon
09. Act 2: "Ah, pour ce soir...Je suis Titania" (Philine) [Polonaise] (5:11)
Jules Massenet (1842-1912)
Le Cid
10. Act 3: "De cet affreux combat....Pleurez, mes yeux" (Chimène) (6:09)
Gustave Charpentier (1860-1956)
Louise
11. Act 3: "Depuis le jour où je me suis donnée" (Louise) (4:45)

-
Maria Callas, soprano
Orchestre National de la Radiodiffusion Française
Georges Prêtre, conductor
Recorded: 28–31.III & 4–5.IV.1961 Salle Wagram, Paris
-Контейнер: FLAC (*.flac)
Тип рипа: tracks
Разрядность: 24bit / 96kHz
Количество каналов: 2.0
-О релизе

Astounding range
Callas never sang a role in French on stage, though she had studied French repertoire as a student and one of her most famous roles, Cherubini’s Medea, had originally been written in French as Médée. From the early 1960s she made her home in Paris, where in 1961 she recorded this recital of French-language arias for both soprano and mezzo-soprano, composed in the 18th, 19th and 20th centuries. ‘The recital … is a tour de force of sympathetic interpretation,’ wrote Gramophone after her death. ‘The range is astounding, so much so that hearing the record is both an inspiring and upsetting experience; not merely because of the sense of the early loss of so great an artist [as Callas], but because the plights of these great human archetypes – Orpheus, Alceste, Carmen, Dalila, Chimène and Juliet – are themselves so uplifting and disturbing as Callas presents them to us … Records like this change people’s lives.’
Maria Callas, soprano
French National Radio Orchestra
Georges Prêtre, conductor
Digitally remastered

ОтчётыДинамический диапазон

foobar2000 1.2.2 / Dynamic Range Meter 1.1.1log date: 2015-04-11 18:24:13
--------------------------------------------------------------------------------Analyzed: Maria Callas, Orchestre National de la Radiodiffusion Française, Georges Prêtre / Callas sings Great Arias from French Operas (1961)--------------------------------------------------------------------------------
DR Peak RMS Duration Track--------------------------------------------------------------------------------DR11 -4.74 dB -20.92 dB 4:28 ?-Orphée et Eurydice: Act 4: "J'ai perdu mon Eurydice" (Orfeo)DR11 -1.94 dB -17.97 dB 4:27 ?-Alceste: Act 1: "Divinités du Styx" (Alceste)DR13 -0.01 dB -20.43 dB 4:05 ?-Carmen: Act 1: "L'amour est un oiseau rebelle" (Carmen) [Habanera]DR13 -0.47 dB -20.53 dB 2:05 ?-Carmen: Act 1: "Près des remparts de Séville" (Carmen) [Seguédille]DR14 -2.74 dB -22.70 dB 5:18 ?-Samson et Dalila: Act 1: "Printemps qui commence" (Dalila)DR12 -3.55 dB -20.79 dB 4:13 ?-Samson et Dalila: Act 2: "Samson, recherchant ma présence...Amour! viens aider ma faiblesse!" (Dalila)DR12 -2.01 dB -21.25 dB 5:21 ?-Samson et Dalila: Act 2: "Mon coeur s'ouvre à ta voix" (Dalila)DR11 -1.56 dB -16.70 dB 3:41 ?-Roméo et Juliette: Act 1: "Je veux vivre" (Juliet) [Waltz]DR11 -1.13 dB -16.89 dB 5:11 ?-Mignon: Act 2: "Ah, pour ce soir...Je suis Titania" (Philine) [Polonaise]DR12 -0.94 dB -19.07 dB 6:09 ?-Le Cid: Act 3: "De cet affreux combat....Pleurez, mes yeux" (Chimène)DR10 -1.08 dB -16.98 dB 4:45 ?-Louise: Act 3: "Depuis le jour où je me suis donnée" (Louise)--------------------------------------------------------------------------------
Number of tracks: 11Official DR value: DR12
Samplerate: 96000 HzChannels: 2Bits per sample: 24Bitrate: 2908 kbpsCodec: FLAC================================================================================

Скриншот спектра частот

Доп. информация

При скачивании, если необходимо, переименуйте папку, в которой будет находиться альбомБольшая просьба к скачавшим поддерживать раздачу! Помогайте другим, ведь вам тоже может понадобиться помощь!Не забываем говорить "Спасибо"!Комментарии приветствуются!
Maria Callas Hi-Res
[teatrix.ru].t11169.torrent 
Торрент: Зарегистрирован [ 2015-12-07 05:05 ] · AD4CAEB178F945AD5BD01FA5324AF918D788BAB6

Скачать .torrent

Скачать

12 KB

Статус: проверено
Скачан: 0 раз
Размер: 1.01 GB
terms.php



Быстрый ответ

Имя:

      
Для отправки сообщений необходимо включить JavaScript
Показать сообщения:    

Текущее время: 04-Дек 17:19

Часовой пояс: UTC + 3


Вы можете начинать темы
Вы можете отвечать на сообщения
Вы не можете редактировать свои сообщения
Вы не можете удалять свои сообщения
Вы не можете голосовать в опросах
Вы не можете прикреплять файлы к сообщениям
Вы можете скачивать файлы