[TR24][OF] Robert Schumann - Violin Concerto & Piano Trio No. 3 (Isabelle Faust, Jean-Guihen Queyras, Alexander Melnikov/Александр Мельников, Freiburger Barockorchester, Pablo Heras-Casado) - 2015 (Classical)

DL-List and Torrent activity [Update пиров]
Size:  1.05 GB   |    Registered:  10 months 16 days   |    Completed:  0 times

Seeder not seen: Never



Robert Schumann
Violin Concerto & Piano Trio No. 3
-Год издания: 2015 | Жанр: Classical
Издатель: Harmonia Mundi | Продолжительность: 01:01:36
Наличие сканов: Sleeve, Digital Booklet- -Isabelle Faust, violin | Jean-Guihen Queyras, cello
Alexander Melnikov, piano
Freiburger Barockorchester, early music ensemble
Pablo Heras-Casado, conductor
Recorded May and September 2014 at Teldex Studio Berlin in Berlin, Germany-Контейнер: FLAC (*.flac) | Тип рипа: tracks
Разрядность: 24bit / 96kHz | Количество каналов: 2.0
-ТреклистRobert Schumann (1810-1856)
Violin Concerto in D minor WoO 1
01. I. In kräftigem, nicht zu schnellem Tempo (15:11)
02. II. Langsam (5:24)
03. III. Lebhaft, doch nicht schnell (11:45)
Piano Trio No.3 in G minor Op.110
04. I. Bewegt, doch nicht zu rasch (11:12)
05. II. Ziemlich langsam (5:57)
06. III. Rasch (4:33)
07. IV. Kräftig, mit Humor (7:34)

О релизе

In the autumn of 1851 Schumann composed, in rapid succession, the two violin sonatas and, in the space of just seven days from 2 to 9 October, the Piano Trio no.3, Op.110. As always during his work, Schumann was oblivious to everything around him, neglected social obligations, and isolated himself – even from Clara. ‘Robert is working very assiduously on a trio for piano, violin, and cello,’ she confided to her diary, ‘but he won’t let me hear anything of it until he has quite finished it – all I know is that it’s in G minor.’
This trio, like all his other chamber works with piano, was tailor-made for Clara to play and right from the first rehearsal session in the domestic circle she went into a veritable frenzy of delight: ‘It is original, absolutely full of passion, especially the scherzo, which sweeps one away to the wildest depths’, Just a little bit of that same enthusiasm would probably have spared the Violin Concerto a great deal of opprobrium: Clara witheld the score, as did the dedicatee, Joachim. It was finally premiered in Berlin on 26 November 1937, more than 80 years after it was composed, with the Berlin Philharmonic conducted by Karl Böhm and the violinist Georg Kulenkampff. Yehudi Menuhin had the privilege of making the first commercial recording, produced in the following year, 1938, with the New York Philharmonic under its British principal conductor John Barbirolli.
This first volume in a trilogy comprising the complete concertos and piano trios of Schumann brings together two late and unjustly neglected works. The instigators of the project, Isabelle Faust, Alexandre Melnikov and Jean-Guihen Queyras, champion their cause with a force of conviction and a choice of instruments that restore the delicate transparency and subtlety of their textures. The next release will be of the Piano Concerto and Piano Trio No. 2.
"The idea for this project arose during a tour on which we performed Robert Schumann’s Trio Op.80. As passionate admirers of the composer, we conceived the desire to place his works for piano, violin and cello in a broader context and to illuminate them mutually in order to allow listeners to gain a deeper understanding of his music. We soon agreed to play the pieces for this recording on a historical piano and stringed instruments with gut strings, using orchestral forces to match. Pablo Heras-Casado and the Freiburger Barockorchester sprang spontaneously to mind as the ideal partners for a project of this kind. Our shared journey into the magical world of this incomparable composer will remain with us as an exceptionally intense, happy, and fulfilling experience." (Isabelle Faust, Alexander Melnikov, Jean-Guihen Queyras).
“Faust's focused tone, stripped of vibrato, combines with the richness of the Freiburg Baroque Orchestra to demonstrate that this work is no strained product of a frail mind but rather a characteristic experiment...[the Third Piano Trio] has been recorded on period instruments...but Faust, Queyras and Melnikov offer a technically sharper, more imaginatively phrased reading.” (Gramophone)

ОтчётыДинамический диапазон

foobar2000 1.2.2 / Dynamic Range Meter 1.1.1log date: 2015-04-13 22:46:31
--------------------------------------------------------------------------------Analyzed: Isabelle Faust, Jean-Guihen Queyras, Alexander Melnikov / Schumann: Violin Concerto & Piano Trio (1-4) Isabelle Faust, Pablo Heras-Casado, Freiburger Barockorchester / Schumann: Violin Concerto & Piano Trio (5-7)--------------------------------------------------------------------------------
DR Peak RMS Duration Track--------------------------------------------------------------------------------DR15 -3.32 dB -24.68 dB 11:12 ?-Piano Trio No.3 in G minor Op.110 - I. Bewegt, doch nicht zu raschDR16 -2.22 dB -24.90 dB 5:57 ?-Piano Trio No.3 in G minor Op.110 - II. Ziemlich langsamDR15 -4.10 dB -25.43 dB 4:33 ?-Piano Trio No.3 in G minor Op.110 - III. RaschDR15 -3.92 dB -23.18 dB 7:34 ?-Piano Trio No.3 in G minor Op.110 - IV. Kräftig, mit HumorDR14 -0.30 dB -20.47 dB 15:11 ?-Violin Concerto in D minor WoO 1 - I. In kräftigem, nicht zu schnellem TempoDR12 -14.27 dB -32.84 dB 5:24 ?-Violin Concerto in D minor WoO 1 - II. LangsamDR16 -0.30 dB -23.25 dB 11:45 ?-Violin Concerto in D minor WoO 1 - III. Lebhaft, doch nicht schnell--------------------------------------------------------------------------------
Number of tracks: 7Official DR value: DR15
Samplerate: 96000 HzChannels: 2Bits per sample: 24Bitrate: 2504 kbpsCodec: FLAC================================================================================

Скриншот спектра частот

Доп. информация

При скачивании, если необходимо, переименуйте папку, в которой будет находиться альбомБольшая просьба к скачавшим поддерживать раздачу! Помогайте другим, ведь вам тоже может понадобиться помощь!Не забываем говорить "Спасибо"!Комментарии приветствуются!
Isabelle Faust Hi-Res
Torrent: Registered [ 2015-12-07 05:05 ] · 846EFFDFEB00762E04A711306F6F1FFF476F4361

Download .torrent


12 KB

Status: checked
Completed: 0 times
Size: 1.05 GB

Quick Reply


Heads necessary to send messages to enable JavaScript
Display posts:    

Current time is: 23-Oct 12:41

All times are UTC + 3

You can post new topics in this forum
You can reply to topics in this forum
You cannot edit your posts in this forum
You cannot delete your posts in this forum
You cannot vote in polls in this forum
You cannot attach files in this forum
You can download files in this forum