[TR24][SM][OF] Volodos plays Mompou - Аркадий Володось - 2013 (Classical)


Статистика раздачи [Обновить пиров]
Размер:  890 MB   |    Зарегистрирован:  1 год   |    Скачан:  0 раз

Полного источника не было: Никогда

 
   
 
 
 

[Цитировать]

Volodos plays Mompou / Аркадий Володось
Формат записи/Источник записи: [TR24][SM][OF]
Наличие водяных знаков: Нет
Издание: 88765433262
Год издания/переиздания диска: 2013
Жанр: Classical
Издатель(лейбл): Sony Music Entertainment GermanyGmbH
Продолжительность: 01:03:03
Наличие сканов в содержимом раздачи: Да
Треклист:
Frederic Mompou (1893-1987)
1 Prélude VII (Palmier d’étoiles) 3:01
2 Damunt de tu només les flors transcription by Arcadi Volodos 4:12
SCÈNES D’ENFANTS
3 I. Cris dans la rue 1:38
4 II. Jeux sur la plage 1:47
5 III. Jeu 2 1:27
6 IV. Jeu 3 2:04
7 V. Jeunes filles au jardin 2:45
8 Hoy la tierra y los cielosmesonríen transcription by Arcadi Volodos 2:15
9 El lago (Le lac) (No. 2 from Paisajes) 5:26
10 ... pour appeler la joie (No. 6 from Charmes) 1:13
11 Prélude XII 4:09
12 Dialogues 2 2:19
13 Dialogues 1 3:09
14 Musica callada I Angelico 2:00
15 Musica callada II Lent 2:11
16 Musica callada XXVII Lento molto 3:23
17 Musica callada XXIVModerato 2:21
18 Musica calladaXXV 3:22
19 Musica callada XI Allegretto 1:27
20 Musica calladaXVLento – plaintif 2:16
21 Musica calladaXXIIMolto lento e tranquilo 2:39
22 Musica calladaXVICalme 2:24
23 Musica callada VI Lento 1:46
24 Musica calladaXXI Lento 3:46
Контейнер: FLAC (*.flac)
Тип рипа: tracks
Разрядность: 24/96
Формат: WAV (flac.ape.wv)
Количество каналов: 2.0
Источник (релизер): http://www.qobuz.com/fr-fr/album/volodos-plays-momp...no/0886443735095
Исполнитель: Arcadi Volodos piano

Dynamic Range Meter

foobar2000 1.2.6 / Dynamic Range Meter 1.1.1
log date: 2015-04-08 22:19:38
--------------------------------------------------------------------------------
Analyzed: Arcadi Volodos / Volodos plays Mompou
--------------------------------------------------------------------------------
DR Peak RMS Duration Track
--------------------------------------------------------------------------------
DR17 -0.33 dB -24.86 dB 3:02 01-Prélude VII (Palmier d'étoiles)
DR15 -1.78 dB -24.86 dB 4:13 02-Damunt de tu Només les flors
DR16 -2.44 dB -26.59 dB 1:39 03-Scènes d'enfants:I. Cris dans la rue
DR13 -4.76 dB -25.11 dB 1:47 04-Scènes d'enfants:II. Jeux sur la plage
DR11 -3.30 dB -22.44 dB 1:28 05-Scènes d'enfants:III. Jeu 2
DR13 -3.98 dB -24.82 dB 2:04 06-Scènes d'enfants:IV. Jeu 3
DR17 -9.76 dB -34.02 dB 2:45 07-Scènes d'enfants:V. Jeunes filles au jardin
DR15 -8.11 dB -30.54 dB 2:16 08-Hoy la tierra y los cielos me sonrien
DR19 -2.64 dB -30.11 dB 5:27 09-El lago (Le lac - from Paisajes, Nr. 2)
DR11 -7.33 dB -26.28 dB 1:13 10-...pour appeler la joie (Charme VI)
DR15 -6.37 dB -27.88 dB 4:10 11-Preludi XII
DR14 -2.97 dB -24.92 dB 2:20 12-Dialogues 2
DR14 -7.13 dB -27.98 dB 3:10 13-Dialogues 1
DR13 -23.09 dB -42.34 dB 2:00 14-Musica callada I Angelico
DR16 -6.91 dB -29.55 dB 2:12 15-Musica callada II Lent
DR15 -16.39 dB -38.83 dB 3:23 16-Musica callada XXVII Lento molto
DR14 -9.25 dB -29.84 dB 2:22 17-Musica callada XXIV Moderato
DR15 -5.03 dB -30.67 dB 3:23 18-Musica callada XXV
DR14 -7.91 dB -28.96 dB 1:28 19-Musica callada XI Allegretto
DR14 -7.16 dB -30.28 dB 2:16 20-Musica callada XV Lento - plaintif
DR13 -14.35 dB -37.42 dB 2:40 21-Musica callada XXII Molto lento e tranquilo
DR13 -8.67 dB -29.86 dB 2:25 22-Musica callada XVI Calme
DR14 -10.25 dB -31.44 dB 1:47 23-Musica callada VI Lento
DR17 -2.14 dB -28.22 dB 3:47 24-Musica callada XXI Lento
--------------------------------------------------------------------------------
Number of tracks: 24
Official DR value: DR14
Samplerate: 96000 Hz
Channels: 2
Bits per sample: 24
Bitrate: 1923 kbps
Codec: FLAC
================================================================================
[teatrix.ru].t11171.torrent 
Торрент: Зарегистрирован [ 2015-12-07 05:05 ] · CC0D92B7400ABB9520C459D3C00DFA98934E6FC3

Скачать .torrent

Скачать

20 KB

Статус: проверено
Скачан: 0 раз
Размер: 890 MB
terms.php



Быстрый ответ

Имя:

      
Для отправки сообщений необходимо включить JavaScript
Показать сообщения:    

Текущее время: 11-Дек 11:03

Часовой пояс: UTC + 3


Вы можете начинать темы
Вы можете отвечать на сообщения
Вы не можете редактировать свои сообщения
Вы не можете удалять свои сообщения
Вы не можете голосовать в опросах
Вы не можете прикреплять файлы к сообщениям
Вы можете скачивать файлы