[TR24][OF] П.И. Чайковский - Иоланта / P. Tchaikovsky - Iolanta (Anna Netrebko/Анна Нетребко, Sergey Skorokhodov/Сергей Скороходов, Alexey Markov, Vitalij Kowaljow, Slovenian Philharmonic Orchestra, Emmanuel Villaume) - 2015 (Classical, Opera)


Статистика раздачи [Обновить пиров]
Размер:  970 MB   |    Зарегистрирован:  1 год   |    Скачан:  0 раз

Полного источника не было: Никогда

 
   
 
 
 

[Цитировать]

Pyotr Tchaikovsky
IOLANTA
Anna Netrebko
Sergey Skorokhodov · Alexey Markov · Vitalij Kowaljow
Slovenian Philharmonic Orchestra · Emmanuel Villaume
-Год издания: 2015 | Жанр: Classical, Opera
Издатель: Deutsche Grammophon | Продолжительность: 01:33:02
Наличие сканов: Sleeve, Digital Booklet
- -Контейнер: FLAC (*.flac) | Тип рипа: tracks
Разрядность: 24bit / 48kHz | Количество каналов: 2.0
-Треклист
Pyotr Ilyich Tchaikovsky (1840-1893)
Iolanta Op.69
Introduction
01. Introduction (2:12)
1. Scene And Arioso Of Iolanta
02. Moy ptencik, Iolanta, tï ustala? (6:39)
03. Otcego eto prežde ne znala (2:35)
2. Scene And Chorus
04. Polno, ne nado, rodnaya … Vot tebe lyutiki (2:02)
3. Scene And Chorus
05. Brigitta, eto tï? (1:52)
06. Spi, pust' angelï krïlami navevayut snï (3:12)
4. Scene And Arioso Of The King
07. Prizïvnïy rog (9:14)
08. Gospod' moy, esli grešen ya (3:18)
5. Scene And Monologue Of Ibn-Hakia
09. Tvoyo lico besstrastno (3:10)
10. Dva mira - plotskiy i dukhovnïy (4:29)
6. Scene And Aria Of Robert
11. Ne toropis', zdes' tak temno … Kto možet sravnit'sya (5:15)
6a. Romance Of Vaudémont
12. Net! Carï lask krasï myatežnoy (3:39)
7. Scene And Duet Of Iolanta And Vaudémont
13. Odnako gde že mï? (6:35)
14. Vï mne predstali kak viden'e (5:30)
15. Tvoyo molcan'e neponyatno … Cudnïy pervenec tvoren'ya (8:41)
8. Scene
16. Iolanta! / Menya zovut podrugi … Tï, osleplennïy mïsl'yu ložnoy (7:26)
17. Net, nazovi mucen'ya, stradan'ya, bol (4:16)
9. Finale
18. Prosti menya (2:09)
19. Gotfrid, ya vïrucat' tebya yavilsya (4:50)
20. Gde ya? (2:02)
21. Blagoy, velikiy, neizmennïy (3:56)

О релизе


Breathtakingly beautiful
Following Anna Netrebko's astounding success in Salzburg's Il Trovatore production we are pleased to announce a very exciting opera release for the start of 2015, recorded during her U-Live tour in 2012.
Anna Netrebko performs Iolanta, the title role of one of Tchaikovsky’s most passionate, evocative scores and one of opera’s most enigmatic figures making the character her own and dedicating herself to championing this under-appreciated work.
„In this live recording, maestro Emmanuel Villaume, with whom Netrebko collaborated on the successful “Souvenirs” album, leads a stellar cast comprising a number of Russia’s biggest opera stars.“ (Markov, Skorokhodov, Kowaljow).
The hand-picked company of supporting artists makes this a significant addition to Netrebko’s discography and an artistically valuable addition to the DG catalogue.
„Anna Netrebko sounded gloriously comfortable in her native language and pouring out a stream of gold-shot-with-silver sound even throughout the range. I doubt if the role has been sung better in living memory…“ (Hugh Canning, Opera Magazine)
„…the role proved to be a near perfect match for her lustrous, resonant soprano“. (New York Times)
Anna Netrebko (Iolanta)
Sergey Skorokhodov (Vaudémont)
Monika Bohinec (Martha)
Jun Ho You (Almerik)
Lucas Meachem (Robert, Duke of Burgundy)
Vitalij Kowaljow (René)
Luka Debevec Mayer (Bertrand)
Nuška Rojko (Laura)
Theresa Plut (Brigitte)
Vladislav Sulimski (Ibn Haki)
Slovenian Philharmonic Orchestra
Emmanuel Villaume, conductor
Recorded: November 2012 at Philharmonie Essen, Germany

ОтчётыДинамический диапазон

foobar2000 1.3.8 / Dynamic Range Meter 1.1.1log date: 2015-07-27 14:39:47
--------------------------------------------------------------------------------Analyzed: Anna Netrebko, Lucas Meachem, Slovenian Philharmonic Orchestra, Emmanuel Villaume / Tchaikovsky: Iolanta Op.69 (1) Anna Netrebko, Sergey Skorokhodov, Alexey Markov, Slovenian Philharmonic Orchestra, Emmanuel Villaume / Tchaikovsky: Iolanta Op.69 (2) Anna Netrebko, Sergey Skorokhodov, Slovenian Philharmonic Orchestra, Emmanuel Villaume / Tchaikovsky: Iolanta Op.69 (3-4) Anna Netrebko, Slovenian Philharmonic Orchestra, Emmanuel Villaume / Tchaikovsky: Iolanta Op.69 (5) Anna Netrebko, Theresa Plut, Nuska Rojko, Monika Bohinec, Sergey Skorokhodov, Jun Ho You, Alexey Markov, Lucas Meachem, Vitalij Kowaljow, Luka Debevec Mayer, Slovenian Philharmonic Orchestra, Emmanuel Villaume, Slovenian Chamber Choir / Tchaikovsky: Iolanta Op.69 (6) Anna Netrebko, Theresa Plut, Nuska Rojko, Monika Bohinec, Sergey Skorokhodov, Jun Ho You, Lucas Meachem, Vitalij Kowaljow, Luka Debevec Mayer, Slovenian Philharmonic Orchestra, Emmanuel Villaume, Slovenian Chamber Choir / Tchaikovsky: Iolanta Op.69 (7-8) Anna Netrebko, Theresa Plut, Nuska Rojko, Monika Bohinec, Slovenian Philharmonic Orchestra, Emmanuel Villaume, Slovenian Chamber Choir / Tchaikovsky: Iolanta Op.69 (9) Anna Netrebko, Theresa Plut, Nuska Rojko, Monika Bohinec, Slovenian Philharmonic Orchestra, Emmanuel Villaume / Tchaikovsky: Iolanta Op.69 (10) Lucas Meachem, Vitalij Kowaljow, Slovenian Philharmonic Orchestra, Emmanuel Villaume / Tchaikovsky: Iolanta Op.69 (11-12) Monika Bohinec, Jun Ho You, Lucas Meachem, Vitalij Kowaljow, Luka Debevec Mayer, Slovenian Philharmonic Orchestra, Emmanuel Villaume / Tchaikovsky: Iolanta Op.69 (13) Sergey Skorokhodov, Alexey Markov, Slovenian Philharmonic Orchestra, Emmanuel Villaume / Tchaikovsky: Iolanta Op.69 (14) Sergey Skorokhodov, Jun Ho You, Vitalij Kowaljow, Slovenian Philharmonic Orchestra, Emmanuel Villaume / Tchaikovsky: Iolanta Op.69 (15) Sergey Skorokhodov, Slovenian Philharmonic Orchestra, Emmanuel Villaume / Tchaikovsky: Iolanta Op.69 (16) Slovenian Philharmonic Orchestra, Emmanuel Villaume / Tchaikovsky: Iolanta Op.69 (17) Theresa Plut, Nuska Rojko, Monika Bohinec, Sergey Skorokhodov, Jun Ho You, Alexey Markov, Lucas Meachem, Vitalij Kowaljow, Luka Debevec Mayer, Slovenian Philharmonic Orchestra, Emmanuel Villaume, Slovenian Chamber Choir / Tchaikovsky: Iolanta Op.69 (18) Theresa Plut, Nuska Rojko, Monika Bohinec, Slovenian Philharmonic Orchestra, Emmanuel Villaume, Slovenian Chamber Choir / Tchaikovsky: Iolanta Op.69 (19-20) Vitalij Kowaljow, Slovenian Philharmonic Orchestra, Emmanuel Villaume / Tchaikovsky: Iolanta Op.69 (21)--------------------------------------------------------------------------------
DR Peak RMS Duration Track--------------------------------------------------------------------------------DR12 -0.15 dB -17.02 dB 2:02 20-Gde ya?DR14 -1.87 dB -21.45 dB 6:35 13-Odnako gde že mï?DR13 -0.11 dB -18.95 dB 5:30 14-Vï mne predstali kak viden'eDR10 -0.07 dB -15.10 dB 8:41 15-Tvoyo molcan'e neponyatno … Cudnïy pervenec tvoren'yaDR11 -0.33 dB -18.16 dB 2:35 03-Otcego eto prežde ne znalaDR9 -0.01 dB -12.68 dB 3:56 21-Blagoy, velikiy, neizmennïyDR11 0.00 dB -16.14 dB 7:26 16-Iolanta! / Menya zovut podrugi … Tï, osleplennïy mïsl'yu ložnoyDR13 -0.31 dB -18.07 dB 4:16 17-Net, nazovi mucen'ya, stradan'ya, bolDR13 -2.88 dB -21.22 dB 6:39 02-Moy ptencik, Iolanta, tï ustala?DR12 -3.41 dB -22.56 dB 1:52 05-Brigitta, eto tï?DR13 -3.85 dB -22.83 dB 3:10 09-Tvoyo lico besstrastnoDR13 -0.21 dB -19.57 dB 4:29 10-Dva mira - plotskiy i dukhovnïyDR15 -2.49 dB -22.40 dB 9:14 07-Prizïvnïy rogDR15 -0.18 dB -19.72 dB 5:15 11-Ne toropis', zdes' tak temno … Kto možet sravnit'syaDR12 -2.10 dB -19.58 dB 2:09 18-Prosti menyaDR12 -3.31 dB -20.23 dB 3:39 12-Net! Carï lask krasï myatežnoyDR13 -6.89 dB -26.07 dB 2:12 01-IntroductionDR14 -0.13 dB -18.95 dB 4:50 19-Gotfrid, ya vïrucat' tebya yavilsyaDR13 -0.21 dB -17.14 dB 2:02 04-Polno, ne nado, rodnaya … Vot tebe lyutikiDR13 -0.21 dB -17.74 dB 3:12 06-Spi, pust' angelï krïlami navevayut snïDR12 -2.36 dB -19.72 dB 3:18 08-Gospod' moy, esli grešen ya--------------------------------------------------------------------------------
Number of tracks: 21Official DR value: DR12
Samplerate: 48000 HzChannels: 2Bits per sample: 24Bitrate: 1394 kbpsCodec: FLAC================================================================================

Скриншот спектра частот

Доп. информация

При скачивании, если необходимо, переименуйте папку, в которой будет находиться альбомБольшая просьба к скачавшим поддерживать раздачу! Помогайте другим, ведь вам тоже может понадобиться помощь!Не забываем говорить "Спасибо"!Комментарии приветствуются!
[teatrix.ru].t11174.torrent 
Торрент: Зарегистрирован [ 2015-12-07 05:05 ] · 480E17EF13BBA2F4C26A67BB579D7C11B7B69A97

Скачать .torrent

Скачать

21 KB

Статус: проверено
Скачан: 0 раз
Размер: 970 MB
terms.php



Быстрый ответ

Имя:

      
Для отправки сообщений необходимо включить JavaScript
Показать сообщения:    

Текущее время: 11-Дек 16:51

Часовой пояс: UTC + 3


Вы можете начинать темы
Вы можете отвечать на сообщения
Вы не можете редактировать свои сообщения
Вы не можете удалять свои сообщения
Вы не можете голосовать в опросах
Вы не можете прикреплять файлы к сообщениям
Вы можете скачивать файлы