[TR24][SM][OF] Camille Saint-Saens - The Romantic Cello Concerto Vol. 5 : Cello Concertos Nos. 1 and 2, La muse et le poete & Allegro appassionato - Natalie Clein, Andrew Manze & BBC Scottish Symphony Orchestra - 2014 (Classical)


Статистика раздачи [Обновить пиров]
Размер:  1.02 GB   |    Зарегистрирован:  11 месяцев   |    Скачан:  0 раз
Сидов:  3  [  0 KB/s  ]   Подробная статистика пиров
 
   
 
 

[Цитировать]

·
Camille Saint-Saens (1835 - 1921)Жанр: Miscellaneous
Носитель: Official Digital Download
Год издания диска: 2014
Издатель(лейбл): Hyperion records
Номер по каталогу: CDA68002
Продолжительность: 00:59:48
Наличие сканов в содержимом раздачи: cover & booklet
Контейнер: FLAC (*.flac)
Разрядность: 24/96
Количество каналов: 2.0
Формат: tracks
Источник: hyperion-records.co.uk
Pелизер: WEB (thanks to the original customer)
Natalie Clein cello
Antje Weithaas violin
Julia Lynch piano **
Judith Keaney piano **
BBC Scottish Symphony Orchestra *
Andrew Manze conductor
*

Треклист

Cello Concerto No 1 in A minor Op 33 (1872) *
01 Allegro non troppo [5'53]
02 Allegretto con moto – [5'02]
03 Tempo primo [8'53]
Cello Concerto No 2 in D minor Op 119 (1902) *
04 Allegro moderato e maestoso – Andante sostenuto [11'27]
05 Allegro non troppo – Cadenza – Tempo 1 – Molto allegro [6'26]
06 La muse et le poète Op 132 (1910) [15'39] *†
07 Allegro appassionato Op 43 (1873) [3'57] *
08 Le cygne (1886) from Le carnaval des animaux [2'31] **
for solo cello and two pianos
http://www.hyperion-records.co.uk/dc.asp?dc=D_CDA68002Dynamic Range Meter">

hyperion-recordshttp://www.hyperion-records.co.uk/dc.asp?dc=D_CDA68002Dynamic Range Meter


foobar2000 1.2.6 / Dynamic Range Meter 1.1.1
log date: 2015-03-24 22:38:05
--------------------------------------------------------------------------------
Analyzed: Natalie Clein, Andrew Manze, BBC Scottish Symphony Orchestra / Saint-Saëns: Cello Concertos (1-6)
Natalie Clein, Antje Weithaas, Andrew Manze, BBC Scottish Symphony Orchestra / Saint-Saëns: Cello Concertos (7)
Natalie Clein, Julia Lynch, Judith Keaney / Saint-Saëns: Cello Concertos (8)
--------------------------------------------------------------------------------
DR Peak RMS Duration Track
--------------------------------------------------------------------------------
DR14 -2.12 dB -23.57 dB 5:53 01-Cello Concerto No 1 in A minor, Op 33 - 1: Allegro non troppo
DR15 -8.80 dB -31.03 dB 5:02 02-Cello Concerto No 1 in A minor, Op 33 - 2: Allegretto con moto –
DR15 -1.19 dB -21.46 dB 8:53 03-Cello Concerto No 1 in A minor, Op 33 - 3: Tempo primo
DR16 -0.08 dB -22.42 dB 11:27 04-Cello Concerto No 2 in D minor, Op 119 - 1: Allegro moderato e maestoso – Andante sostenuto
DR14 -0.09 dB -20.53 dB 6:26 05-Cello Concerto No 2 in D minor, Op 119 - 2: Allegro non troppo – Cadenza – Tempo 1 – Molto allegro
DR16 -3.03 dB -25.30 dB 3:57 07-Allegro appassionato, Op 43
DR16 -0.04 dB -23.05 dB 15:39 06-La muse et le poète, Op 132
DR12 -15.91 dB -32.34 dB 2:27 08-Le carnaval des animaux - 13: Le cygne
--------------------------------------------------------------------------------
Number of tracks: 8
Official DR value: DR15
Samplerate: 96000 Hz
Channels: 2
Bits per sample: 24
Bitrate: 2196 kbps
Codec: FLAC
================================================================================
[teatrix.ru].t11175.torrent 
Торрент: Зарегистрирован [ 2015-12-07 05:05 ] · 18EBC0EE4E15029E2C147AD46B2AB6262E7249F5

Скачать .torrent

Скачать

12 KB

Статус: проверено
Скачан: 0 раз
Размер: 1.02 GB
terms.php



Быстрый ответ

Имя:

      
Для отправки сообщений необходимо включить JavaScript
Показать сообщения:    

Текущее время: 05-Дек 13:26

Часовой пояс: UTC + 3


Вы можете начинать темы
Вы можете отвечать на сообщения
Вы не можете редактировать свои сообщения
Вы не можете удалять свои сообщения
Вы не можете голосовать в опросах
Вы не можете прикреплять файлы к сообщениям
Вы можете скачивать файлы