[TR24][OF] Antonín Dvořák (Antonin Dvorak) - Piano & Violin Concertos (Рустем Хайрутдинов / Rustem Hayroudinoff, James Ehnes, BBC Philharmonic, Gianandrea Noseda) - 2005 (Classical)


Статистика раздачи [Обновить пиров]
Размер:  808 MB   |    Зарегистрирован:  1 год   |    Скачан:  1 раз

Полного источника не было: 13 дней

 
   
 
 
 

[Цитировать]

Antonín Dvořák
Piano Concerto · Violin Concerto
Rustem Hayroudinoff · James Ehnes · BBC Philharmonic · Gianandrea Noseda
- Год издания: 2005
Жанр: Classical
Издатель (лейбл): Chandos
Продолжительность: 01:10:30
Наличие сканов: Sleeve, Digital Booklet
- -
Antonin Dvořák (1841-1904)
Piano Concerto in G Minor, Op. 33, B. 63 *
01. I. Allegro agitato (18:36)
02. II. Andante sostenuto (9:10)
03. III. Finale: Allegro con fuoco (11:40)
Violin Concerto in A Minor, Op. 53, B. 96
04. I. Allegro ma non troppo (10:29)
05. II. Adagio ma non troppo (10:18)
06. III. Finale: Allegro giocoso, ma non troppo (10:17)

-
BBC Philharmonic
Gianandrea Noseda (conductor)
Rustem Hayroudinoff piano *
James Ehnes violin
Recorded: Studio 7, New Broadcasting House, Manchester, 2 October (Violin Concerto)
and 16 December (Piano Concerto) 2004

-
Контейнер: FLAC (*.flac)
Тип рипа: tracks
Разрядность: 24bit / 96kHz
Количество каналов: 2.0
-О релизе

When Gianandrea Noseda was appointed Chief Conductor of the BBC Philharmonic, great things were expected – the reputation of this young conductor preceded him. What was less expected was the diversity of repertoire that he would conduct, with equal success. His releases for Chandos, from Prokofiev to Dallapiccola, routinely pick up accolades from the critics. This disc features two of Dvorak’s neglected concertos, performed with great élan by soloists James Ehnes and Rustem Hayroudinoff. Both works have been overshadowed by Dvorak’s more popular Cello Concerto in B minor, but, as is apparent from this recording, both are delightful pieces, full of Slavic colour and folk rhythms, and characteristic of Dvorak at his best.
James Ehnes made his debut on the Chandos label only last year, and his recordings have gone from strength to strength. Forthcoming appearances include concerts in Edmonton and Montreal in June, Europe in July as well as a number of dates around the USA. Rustem Hayroudinoff has an extensive and highly regarded discography on the Chandos label.
"Dvorák was a string player rather than a pianist, and though his keyboard style in his Piano Concerto is almost invariably effective and well-written, it is sometimes unidiomatic and uncomfortable to play. This is possibly the reason for the work’s neglect. In the twentieth century the work gradually became known through ‘performing versions’ such as that by Wilém Kurz. In recent decades, however, some pianists have tended to go back to Dvorák ’s original score. On this disc Rustem Hayroudinoff plays a mixed text, partly using Dvorák ’s original but, where that is ineffective, employing Kurz’s version. In a few places, where Kurz’s changes seem to push the piano part too far in the direction of a typical romantic concerto, Hayroudinoff has found his own solutions for staying true to Dvorák ’s intentions; but his only real liberty has been to maintain the pulse towards the very end of the slow movement, where Dvorák , in a passage widely held to be ineffective, doubles it.
The violin was an instrument that Dvorák knew very well and for the two decades after its composition, his Violin Concerto was one of his most frequently performed works. Subsequently it was overshadowed by the even greater popularity of his Cello Concerto, and even now is not often heard, despite its wealth of fresh and characteristic invention. Its unusual form – a truncated first movement that flows without a break into the slow movement, the concerto rounded off by a finale that in size balances the other two movements – may well have been suggested by the First Violin Concerto of Bruch. There are, too, a few unmistakable echoes of Brahms’s concerto, but the thematic material is deeply Slavic and wholly characteristic of the composer, nowhere more so than in the sonata rondo Finale, one of his most brilliant and delightful essays in Czech dance rhythms.

ОтчётыДинамический диапазон

foobar2000 1.2.2 / Dynamic Range Meter 1.1.1log date: 2015-03-09 20:41:45
--------------------------------------------------------------------------------Analyzed: Rustem Hayroudinoff, James Ehnes, BBC Philharmonic Orchestra, Gianandrea Noseda / Dvořák: Piano Concerto · Violin Concerto--------------------------------------------------------------------------------
DR Peak RMS Duration Track--------------------------------------------------------------------------------DR15 -0.96 dB -23.71 dB 18:36 ?-Piano Concerto in G Minor, Op. 33, B. 63: I. Allegro agitato - Poco tranquillo - Tempo I - Poco tranquillo - Tempo IDR16 -3.69 dB -27.69 dB 9:10 ?-Piano Concerto in G Minor, Op. 33, B. 63: II. Andante sostenutoDR15 -0.34 dB -23.25 dB 11:40 ?-Piano Concerto in G Minor, Op. 33, B. 63: III. Finale: Allegro con fuoco - Poco sostenuto - Tempo IDR16 -3.37 dB -26.57 dB 10:29 ?-Violin Concerto in A Minor, Op. 53, B. 96: I. Allegro ma non troppoDR17 -6.04 dB -30.21 dB 10:18 ?-Violin Concerto in A Minor, Op. 53, B. 96: II. Adagio ma non troppoDR16 -3.52 dB -26.06 dB 10:17 ?-Violin Concerto in A Minor, Op. 53, B. 96: III. Finale: Allegro giocoso, ma non troppo--------------------------------------------------------------------------------
Number of tracks: 6Official DR value: DR16
Samplerate: 96000 HzChannels: 2Bits per sample: 24Bitrate: 1699 kbpsCodec: FLAC================================================================================

Скриншот спектра частот

Доп. информация

При скачивании, если необходимо, переименуйте папку, в которой будет находиться альбомБольшая просьба к скачавшим поддерживать раздачу! Помогайте другим, ведь вам тоже может понадобиться помощь!Не забываем говорить "Спасибо"!Комментарии приветствуются!
[teatrix.ru].t11176.torrent 
Торрент: Зарегистрирован [ 2015-12-07 05:05 ] · E3718ECDEAAE4045BCE60134021E5A289C43A6CA

Скачать .torrent

Скачать

17 KB

Статус: проверено
Скачан: 1 раз
Размер: 808 MB
terms.php



Быстрый ответ

Имя:

      
Для отправки сообщений необходимо включить JavaScript
Показать сообщения:    

Текущее время: 09-Дек 16:35

Часовой пояс: UTC + 3


Вы можете начинать темы
Вы можете отвечать на сообщения
Вы не можете редактировать свои сообщения
Вы не можете удалять свои сообщения
Вы не можете голосовать в опросах
Вы не можете прикреплять файлы к сообщениям
Вы можете скачивать файлы