[TR24][OF] J.S. Bach - Sonatas & Partitas for Solo Violin, BWV 1001-1006 (Gil Shaham) - 2015 (Classical, Violin)


Статистика раздачи [Обновить пиров]
Размер:  1.23 GB   |    Зарегистрирован:  11 месяцев   |    Скачан:  0 раз

Полного источника не было: Никогда

 
   
 
 
 

[Цитировать]

J.S. Bach
Sonatas and Partitas
Gil Shaham
-Год издания: 2015 | Жанр: Classical | Издатель: Canary Classics
Продолжительность: 01:57:32 | Сканы: Sleeve, Digital Booklet- -Gil Shaham, violin
Recorded in Studio 2 at Bayerischer Rundfunk, Munich, Germany
on June 24, 30 and July 1–3 2014
-Контейнер: FLAC (*.flac) | Тип рипа: tracks
Разрядность: 24bit / 44.1kHz | Количество каналов: 2.0
-
ТреклистJohann Sebastian Bach (1685-1750)
Violin Sonata No. 1 in G Minor, BWV 1001
01. I. Adagio (3:12)
02. II. Fugue: Allegro (4:14)
03. III. Siciliana (2:41)
04. IV. Presto (3:31)
Violin Partita No. 1 in B Minor, BWV 1002
05. I. Allemanda (3:54)
06. II. Double (2:38)
07. III. Corrente (2:58)
08. IV. Double. Presto (3:41)
09. V. Sarabanda (2:58)
10. VI. Double (2:02)
11. VII. Tempo di Bourree (3:06)
12. VIII. Double (3:18)
Violin Sonata No. 2 in A Minor, BWV 1003
13. I. Grave (3:07)
14. II. Fuga (6:45)
15. III. Andante (4:08)
16. IV. Allegro (5:15)
Violin Partita No. 2 in D Minor, BWV 1004
17. I. Allemande (3:36)
18. II. Courante (2:18)
19. III. Sarabande (3:02)
20. IV. Gigue (3:54)
21. V. Ciaccona (11:12)
Violin Sonata No. 3 in C Major, BWV 1005
22. I. Adagio (2:57)
23. II. Fugue (8:15)
24. III. Largo (2:55)
25. IV. Allegro assai (5:05)
Violin Partita No. 3 in E Major, BWV 1006
26. I. Preludio (3:21)
27. II. Loure (3:10)
28. III. Gavotte en rondeau (2:54)
29. IV. Menuett I-II (4:01)
30. V. Bourree (1:29)
31. VI. Gigue (1:53)

О релизе


These works have been part of Shaham's concert programmes for over 10 years and for this recording he has decided on a 'more Baroque set-up' opting for a Baroque bridge, Baroque bow and 3 of 4 strings being gut.
When asked what effect this set-up has on his interpretation Gil indicated that 'it changes every stroke, but it doesn't really change general ideas of interpretation. You can do everything with both sets of bow and bridge, although some things are easier with the modern bow, some with the Baroque one. The "small softness" (coined by Leopold Mozart) is easier with the Baroque bow.'
The tempos Gil Shaham has settled on in this recording are also quite different from what one might expect. Shaham takes inspiration from other works by Bach, as he explains; 'if you compare the French minuet from Partita No.3, with say the minuet from a French suite, or even the famous 'Anna Magdalena' minuet I found myself asking myself wouldn't it work better at the same tempo as the others? The Baroque bow is lighter and is easier to play faster.'
The deluxe package comes complete with Shaham's insightful views on these works in discussion with former Strad Magazine editor Ariane Todes.
Gil Shaham remains second to none in the masterworks of the mainstream violin repertoire, and here offers a recording of bold originality in what is one the most unforgiving of old-school challenges: that of playing solo Bach.
-
"In a world full of outstanding violinists, Shaham is one of the few identifiable by sound and style alone."
- Boston Globe

ОтчётыДинамический диапазон

foobar2000 1.2.2 / Dynamic Range Meter 1.1.1log date: 2015-03-09 01:02:53
--------------------------------------------------------------------------------Analyzed: Gil Shaham / J.S. Bach: Sonatas & Partitas--------------------------------------------------------------------------------
DR Peak RMS Duration Track--------------------------------------------------------------------------------DR12 -1.00 dB -19.00 dB 3:12 ?-Violin Sonata No. 1 in G Minor, BWV 1001: I. AdagioDR12 -0.51 dB -16.02 dB 4:14 ?-Violin Sonata No. 1 in G Minor, BWV 1001: II. Fugue: AllegroDR12 -2.44 dB -18.98 dB 2:41 ?-Violin Sonata No. 1 in G Minor, BWV 1001: III. SicilianaDR14 -0.65 dB -19.01 dB 3:31 ?-Violin Sonata No. 1 in G Minor, BWV 1001: IV. PrestoDR13 -2.99 dB -19.90 dB 3:54 ?-Violin Partita No. 1 in B Minor, BWV 1002: I. AllemandaDR14 -6.03 dB -24.63 dB 2:38 ?-Violin Partita No. 1 in B Minor, BWV 1002: II. DoubleDR13 -2.39 dB -19.04 dB 2:58 ?-Violin Partita No. 1 in B Minor, BWV 1002: III. CorrenteDR11 -1.15 dB -16.81 dB 3:41 ?-Violin Partita No. 1 in B Minor, BWV 1002: IV. Double. PrestoDR12 -1.34 dB -18.15 dB 2:58 ?-Violin Partita No. 1 in B Minor, BWV 1002: V. SarabandaDR12 -1.65 dB -18.75 dB 2:02 ?-Violin Partita No. 1 in B Minor, BWV 1002: VI. DoubleDR12 -0.68 dB -16.60 dB 3:06 ?-Violin Partita No. 1 in B Minor, BWV 1002: VII. Tempo di BourreeDR14 -2.32 dB -21.63 dB 3:18 ?-Violin Partita No. 1 in B Minor, BWV 1002: VIII. DoubleDR12 -0.94 dB -18.34 dB 3:07 ?-Violin Sonata No. 2 in A Minor, BWV 1003: I. GraveDR11 -0.54 dB -16.10 dB 6:45 ?-Violin Sonata No. 2 in A Minor, BWV 1003: II. FugaDR11 -5.36 dB -21.61 dB 4:08 ?-Violin Sonata No. 2 in A Minor, BWV 1003: III. AndanteDR11 -0.59 dB -15.66 dB 5:15 ?-Violin Sonata No. 2 in A Minor, BWV 1003: IV. AllegroDR13 -2.24 dB -19.62 dB 3:36 ?-Violin Partita No. 2 in D Minor, BWV 1004: I. AllemandeDR13 -0.90 dB -18.39 dB 2:18 ?-Violin Partita No. 2 in D Minor, BWV 1004: II. CouranteDR13 -1.83 dB -19.96 dB 3:02 ?-Violin Partita No. 2 in D Minor, BWV 1004: III. SarabandeDR12 -1.76 dB -17.38 dB 3:54 ?-Violin Partita No. 2 in D Minor, BWV 1004: IV. GigueDR11 -0.90 dB -16.38 dB 11:12 ?-Violin Partita No. 2 in D Minor, BWV 1004: V. CiacconaDR11 -0.78 dB -15.40 dB 2:57 ?-Violin Sonata No. 3 in C Major, BWV 1005: I. AdagioDR11 -0.65 dB -14.76 dB 8:15 ?-Violin Sonata No. 3 in C Major, BWV 1005: II. FugueDR11 -3.54 dB -20.23 dB 2:55 ?-Violin Sonata No. 3 in C Major, BWV 1005: III. LargoDR11 -0.73 dB -16.27 dB 5:05 ?-Violin Sonata No. 3 in C Major, BWV 1005: IV. Allegro assaiDR11 -1.29 dB -15.86 dB 3:21 ?-Violin Partita No. 3 in E Major, BWV 1006: I. PreludioDR11 -1.33 dB -17.00 dB 3:10 ?-Violin Partita No. 3 in E Major, BWV 1006: II. LoureDR12 -1.16 dB -15.63 dB 2:54 ?-Violin Partita No. 3 in E Major, BWV 1006: III. Gavotte en rondeauDR12 -2.07 dB -17.83 dB 4:01 ?-Violin Partita No. 3 in E Major, BWV 1006: IV. Menuett I-IIDR13 -1.74 dB -17.95 dB 1:29 ?-Violin Partita No. 3 in E Major, BWV 1006: V. BourreeDR11 -1.66 dB -17.15 dB 1:53 ?-Violin Partita No. 3 in E Major, BWV 1006: VI. Gigue--------------------------------------------------------------------------------
Number of tracks: 31Official DR value: DR12
Samplerate: 44100 HzChannels: 2Bits per sample: 24Bitrate: 1434 kbpsCodec: FLAC================================================================================

Скриншот спектра частот

Доп. информация

При скачивании, если необходимо, переименуйте папку, в которой будет находиться альбомБольшая просьба к скачавшим поддерживать раздачу! Помогайте другим, ведь вам тоже может понадобиться помощь!Не забываем говорить "Спасибо"!Комментарии приветствуются!
[teatrix.ru].t11177.torrent 
Торрент: Зарегистрирован [ 2015-12-07 05:05 ] · 6BADE759B1FB42E9C23B085391CFCABDB57942F4

Скачать .torrent

Скачать

16 KB

Статус: проверено
Скачан: 0 раз
Размер: 1.23 GB
terms.php



Быстрый ответ

Имя:

      
Для отправки сообщений необходимо включить JavaScript
Показать сообщения:    

Текущее время: 07-Дек 00:53

Часовой пояс: UTC + 3


Вы можете начинать темы
Вы можете отвечать на сообщения
Вы не можете редактировать свои сообщения
Вы не можете удалять свои сообщения
Вы не можете голосовать в опросах
Вы не можете прикреплять файлы к сообщениям
Вы можете скачивать файлы