[TR24][OF] Paweł Szymański (Pavel Szymanski) & Paweł Mykietyn (Pavel Mykietyn) - Music for String Quartet (Royal String Quartet) - 2015 (Classical)


Статистика раздачи [Обновить пиров]
Размер:  1.07 GB   |    Зарегистрирован:  11 месяцев 27 дней   |    Скачан:  0 раз

Полного источника не было: Никогда

 
   
 
 
 

[Цитировать]

Paweł Szymański · Paweł Mykietyn
Music for String Quartet
Royal String Quartet
- Год издания: 2015
Жанр: Classical
Издатель (лейбл): Hyperion
Продолжительность: 01:06:47
Наличие сканов: Sleeve, Digital Booklet
- -
Paweł Szymański (born 1954)
Five pieces for string quartet
01. No 1: Crotchet = 72 (3:20)
02. No 2: Dotted quaver = 112 (1:55)
03. No 3: Quaver = 72 (Massimo) (3:12)
04. No 4: Crotchet = 90 (5:19)
05. No 5: Crotchet = 48 (4:28)
Four pieces for string quartet
06. No 1: Crotchet = 90 – (5:53)
07. No 2: Crotchet = 60 – (5:54)
08. No 3: Crotchet = 120 – (1:51)
09. No 4: Crotchet = 40 (6:46)
Two pieces for string quartet
10. No 1: Quaver = 60 – (4:07)
11. No 2: Quaver = 60 (11:48)
Paweł Mykietyn (born 1971)
12. String Quartet No 2 (12:14)

-
Royal String Quartet:
Izabella Szałaj-Zimak – violin
Elwira Przybyłowska – violin
Marek Czech – viola
Michał Pepol – cello
Recorded in Potton Hall, Dunwich, Suffolk, on 14-16 February 2014

-
Контейнер: FLAC (*.flac)
Тип рипа: tracks
Разрядность: 24bit / 96kHz
Количество каналов: 2.0
-О релизе

The ofcial titles of the works performed here are not helpful: what they conceal are the most extraordinary sound worlds from two composers at the vanguard of the contemporary Polish music scene, and the magicians of the Royal String Quartet summon from their instruments sounds of collective and individual wonder.
This is music to grab the attention of its audiencewhether willing or notand it will leave listeners emphatically having chosen a side of the fence.

ОтчётыДинамический диапазон

foobar2000 1.2.2 / Dynamic Range Meter 1.1.1log date: 2015-03-02 18:17:51
--------------------------------------------------------------------------------Analyzed: Royal String Quartet / Szymanski & Mykietyn: Music for string quartet--------------------------------------------------------------------------------
DR Peak RMS Duration Track--------------------------------------------------------------------------------DR14 -0.07 dB -20.71 dB 3:20 ?-Five pieces for string quartet - No 1: Crotchet = 72DR14 -8.47 dB -30.57 dB 1:55 ?-Five pieces for string quartet - No 2: Dotted quaver = 112DR11 -25.49 dB -44.86 dB 3:12 ?-Five pieces for string quartet - No 3: Quaver = 72 (Massimo)DR13 -0.15 dB -16.88 dB 5:19 ?-Five pieces for string quartet - No 4: Crotchet = 90DR14 -4.90 dB -29.32 dB 4:28 ?-Five pieces for string quartet - No 5: Crotchet = 48DR14 -1.26 dB -17.49 dB 5:53 ?-Four pieces for string quartet - No 1: Crotchet = 90 –DR21 -7.48 dB -36.47 dB 5:54 ?-Four pieces for string quartet - No 2: Crotchet = 60 –DR13 -0.31 dB -20.26 dB 1:51 ?-Four pieces for string quartet - No 3: Crotchet = 120 –DR18 -8.00 dB -32.60 dB 6:46 ?-Four pieces for string quartet - No 4: Crotchet = 40DR13 -0.22 dB -18.05 dB 4:07 ?-Two pieces for string quartet - No 1: Quaver = 60 –DR19 -11.44 dB -35.64 dB 11:48 ?-Two pieces for string quartet - No 2: Quaver = 60DR16 -7.85 dB -29.18 dB 12:14 ?-String Quartet No 2--------------------------------------------------------------------------------
Number of tracks: 12Official DR value: DR15
Samplerate: 96000 HzChannels: 2Bits per sample: 24Bitrate: 2342 kbpsCodec: FLAC================================================================================

Скриншот спектра частот

Доп. информация

При скачивании, если необходимо, переименуйте папку, в которой будет находиться альбомБольшая просьба к скачавшим поддерживать раздачу! Помогайте другим, ведь вам тоже может понадобиться помощь!Не забываем говорить "Спасибо"!Комментарии приветствуются!
[teatrix.ru].t11178.torrent 
Торрент: Зарегистрирован [ 2015-12-07 05:05 ] · 21C6886E9649B7A8B4CB88B8E3FDC5EB35C8AA0C

Скачать .torrent

Скачать

13 KB

Статус: проверено
Скачан: 0 раз
Размер: 1.07 GB
terms.php



Быстрый ответ

Имя:

      
Для отправки сообщений необходимо включить JavaScript
Показать сообщения:    

Текущее время: 03-Дек 16:45

Часовой пояс: UTC + 3


Вы можете начинать темы
Вы можете отвечать на сообщения
Вы не можете редактировать свои сообщения
Вы не можете удалять свои сообщения
Вы не можете голосовать в опросах
Вы не можете прикреплять файлы к сообщениям
Вы можете скачивать файлы