[TR24][OF] Béla Bartók (Bela Bartok) - Concerto For Orchestra; Music For Strings, Percussion & Celesta (Baltimore Symphony Orchestra, Marin Alsop) - 2015 (Classical)


Статистика раздачи [Обновить пиров]
Размер:  2.26 GB   |    Зарегистрирован:  11 месяцев   |    Скачан:  0 раз

Полного источника не было: Никогда

 
   
 
 
 

[Цитировать]

Bela Bartok
Concerto For Orchestra · Music For Strings, Percussion & Celesta
Baltimore Symphony Orchestra · Marin Alsop
- Год издания: 2015
Жанр: Classical
Издатель (лейбл): 2xHD - Naxos
Продолжительность: 01:07:04
Наличие сканов: Sleeve, Digital Booklet
- -
Béla Bartók (1881-1945)
Concerto for Orchestra, Sz. 116
01. I. Introduzione: Andante non troppo - Allegro vivace (9:52)
02. II. Giuoco delle coppie: Allegretto scherzando (6:40)
03. III. Elegia: Andante non troppo (7:32)
04. IV. Intermezzo interrotto: Allegretto (4:17)
05. V. Finale: Presto (9:33)
Music for Strings, Percussion and Celesta, BB 114
06. I. Andante tranquillo (7:07)
07. II. Allegro (7:37)
08. III. Adagio (7:35)
09. IV. Allegro molto (6:52)
-Baltimore Symphony Orchestra
Marin Alsop, conductor

-
Контейнер: FLAC (*.flac)
Тип рипа: tracks
Разрядность: 24bit / 192kHz
Количество каналов: 2.0
-О релизе

Béla Bartok’s Concerto for Orchestra, one of his greatest works, was written in the United States after the composer was forced to flee Hungary during World War II. It is not only a brilliant display vehicle for each instrumental section but a work of considerable structural ingenuity that unites classical forms and sonorities with the pungency of folk rhythms and harmonies. Music for Strings, Percussion and Celesta explores darker moods through a score of marvellously poised symmetry.
This release follows Marin Alsop’s ‘riveting’ (Gramophone) Baltimore Symphony recordings of Dvorak’s symphonies.
This has long been a popular coupling of works by Béla Dvorak, but this new release rides on the crest of a wave of previous successes and will occupy a leading position amongst the competition on the quality of its recording and performance. Marin Alsop and the Baltimore Symphony Orchestra have a synergy which has made their Dvorak symphonic recordings sound ‘as fresh as when Dvorak put pen to paper’ (BBC Music Magazine on the Symphonies 7 and 8, NBD0010). Of Dvorak’s New World Symphony (8570714) BBC Music Magazine also wrote, ‘it is rare to be able to say that a performance forces one to listen to a work anew, but this is exactly what Alsop’s reading achieves.’
“If you're unfamiliar with these seminal mid-20th century works, here's an unmissable chance of getting to know it.” (BBC Music Magazine)
“Warmth and vitality are appropriate keywords for this coupling, a practical Bartok primer you might say, well played, persuasively interpreted and nicely recorded...In the Concerto for Orchestra's first movement Marin Alsop and her players generate plenty of energy...a fine bargain and a credible starting point for those wanting to dip a toe into Bartokian waters.” (Gramophone Magazine)
“Her orchestra's precision here is enviable, with crisp ensemble playing and solo voices of considerable character. The sound is not particularly full-bodied but neither is it bloated - rather, it is to some extent reminiscent of the finest American orchestras of past decades in privileging nuance above raw power.” (International Record Review)
Baltimore Symphony Orchestra
Marin Alsop, conductor
Recorded at Meyerhoff Hall, Baltimore, Maryland, USA, from 2nd-4th October, 2009 (tracks 1-5),
and on 3rd, 4th and 6th June, 2010 (tracks 6-9)
Engineered and edited by Richard King
Produced by Steven Epstein
Digitally remastered

ОтчётыДинамический диапазон

foobar2000 1.2.2 / Dynamic Range Meter 1.1.1log date: 2015-02-26 18:55:27
--------------------------------------------------------------------------------Analyzed: Baltimore Symphony Orchestra, Marin Alsop / Bartók: Concerto for Orchestra; Music for Strings, Percussion & Celesta--------------------------------------------------------------------------------
DR Peak RMS Duration Track--------------------------------------------------------------------------------DR16 -0.75 dB -23.16 dB 9:52 ?-Concerto for Orchestra, Sz. 116: I. Introduzione: Andante non troppo - Allegro vivaceDR13 -10.11 dB -29.76 dB 6:40 ?-Concerto for Orchestra, Sz. 116: II. Giuoco delle coppie: Allegretto scherzandoDR14 -4.23 dB -24.27 dB 7:32 ?-Concerto for Orchestra, Sz. 116: III. Elegia: Andante non troppoDR17 -5.09 dB -28.53 dB 4:17 ?-Concerto for Orchestra, Sz. 116: IV. Intermezzo interrotto: AllegrettoDR15 0.00 dB -20.82 dB 9:33 ?-Concerto for Orchestra, Sz. 116: V. Finale: PrestoDR15 -1.28 dB -25.63 dB 7:07 ?-Music for Strings, Percussion and Celesta, BB 114: I. Andante tranquilloDR15 -1.13 dB -21.36 dB 7:37 ?-Music for Strings, Percussion and Celesta, BB 114: II. AllegroDR18 -3.06 dB -28.07 dB 7:35 ?-Music for Strings, Percussion and Celesta, BB 114: III. AdagioDR14 -1.33 dB -20.22 dB 6:52 ?-Music for Strings, Percussion and Celesta, BB 114: IV. Allegro molto--------------------------------------------------------------------------------
Number of tracks: 9Official DR value: DR15
Samplerate: 192000 HzChannels: 2Bits per sample: 24Bitrate: 4975 kbpsCodec: FLAC================================================================================

Скриншот спектра частот

Доп. информация

При скачивании, если необходимо, переименуйте папку, в которой будет находиться альбомБольшая просьба к скачавшим поддерживать раздачу! Помогайте другим, ведь вам тоже может понадобиться помощь!Не забываем говорить "Спасибо"!Комментарии приветствуются!
[teatrix.ru].t11179.torrent 
Торрент: Зарегистрирован [ 2015-12-07 05:05 ] · 63A79EA8944C821DFD62E0A0834D3E1E32FF7E93

Скачать .torrent

Скачать

13 KB

Статус: проверено
Скачан: 0 раз
Размер: 2.26 GB
terms.php



Быстрый ответ

Имя:

      
Для отправки сообщений необходимо включить JavaScript
Показать сообщения:    

Текущее время: 07-Дек 00:49

Часовой пояс: UTC + 3


Вы можете начинать темы
Вы можете отвечать на сообщения
Вы не можете редактировать свои сообщения
Вы не можете удалять свои сообщения
Вы не можете голосовать в опросах
Вы не можете прикреплять файлы к сообщениям
Вы можете скачивать файлы