[TR24][OF] David Chesky - Solo Piano Works (Brazil Dances Nos 6-8, Etude No. 1) - 2015 (Classical, Piano, Binaural+)

DL-List and Torrent activity [Update пиров]
Size:  233 MB   |    Registered:  10 months 14 days   |    Completed:  0 times

Seeder not seen: Never



David Chesky
Solo Piano Works
- Год издания/переиздания диска: 2015
Жанр: Classical, Piano
Издатель (лейбл): Chesky Records
Продолжительность: 00:13:14
Наличие сканов: Sleeve, Digital Booklet- -
David Chesky ('1956)
Brazil Dances
01. Dance No. 6 (3:34)
02. Dance No. 7 (3:25)
03. Dance No. 8 (3:14)
04. Etude No. 1 (3:01)
David Chesky (piano & composer)
Контейнер: FLAC (*.flac)
Тип рипа: tracks
Разрядность: 24bit / 96kHz
Количество каналов: 2.0-О релизе

Composer David Chesky has two full length albums planned later in 2015, one orchestral and one jazz. In preparation for these, enjoy a small taste of David's works with this mini album featuring his three Brazilian Dances for solo piano as well as his Etude No. 1 for solo piano. Both works emanate from David's compositional style, a combination of 21st century harmonies paired with South American rhythms.
Part of the Chesky Binaural + Series, all recorded using binaural techniques, the pianist appears right before you with this spacious, lush and multi-dimensional recording. Now headphone users will hear the same three-dimensional sound and imaging as audiophiles have for the past 25 years with Chesky Recordings. Also these new Binaural+ Series albums capture even more spatial realism for the home audiophile market, bringing you one step closer to the actual event.
Recorded June 12, 2014 at the Hirsch Center in Brooklyn, NY.
Producer: David Chesky
Recording engineers: Nicholas Prout and Alex Sterling (assistant)
Mastering engineer: Nicholas Prout
Recorded with the MSB A/D converter, Crystal Cables, B & K 4100 head and torso simulator. Special thanks to Professor Edgar Choueiri, of the 3D Audio and Applied Acoustics (3D3A) Lab of Princeton University, for his technical assistance on the 3D audio aspects of this binaural recording.

ОтчётыДинамический диапазон

foobar2000 1.2.2 / Dynamic Range Meter 1.1.1log date: 2015-02-23 13:10:49
--------------------------------------------------------------------------------Analyzed: David Chesky / Brazil Dances--------------------------------------------------------------------------------
DR Peak RMS Duration Track--------------------------------------------------------------------------------DR15 -1.66 dB -21.78 dB 3:34 ?-Dance No. 6DR15 -0.30 dB -20.20 dB 3:25 ?-Dance No. 7DR14 -5.68 dB -22.41 dB 3:14 ?-Dance No. 8DR13 -1.80 dB -21.29 dB 3:01 ?-Etude No. 1--------------------------------------------------------------------------------
Number of tracks: 4Official DR value: DR14
Samplerate: 96000 HzChannels: 2Bits per sample: 24Bitrate: 2410 kbpsCodec: FLAC================================================================================

Скриншот спектра частот

Доп. информация

При скачивании, если необходимо, переименуйте папку, в которой будет находиться альбомБольшая просьба к скачавшим поддерживать раздачу! Помогайте другим, ведь вам тоже может понадобиться помощь!Не забываем говорить "Спасибо"!Комментарии приветствуются!
Torrent: Registered [ 2015-12-07 05:05 ] · C757DF3AC7B17795997F3721E806C5A1C7EB60

Download .torrent


19 KB

Status: checked
Completed: 0 times
Size: 233 MB

Quick Reply


Heads necessary to send messages to enable JavaScript
Display posts:    

Current time is: 21-Oct 17:53

All times are UTC + 3

You can post new topics in this forum
You can reply to topics in this forum
You cannot edit your posts in this forum
You cannot delete your posts in this forum
You cannot vote in polls in this forum
You cannot attach files in this forum
You can download files in this forum