Приют комедиантов. Выпуск 36. Фестивали (Сергей Варновский) [2012, Капустник, SATRip]


Статистика раздачи [Обновить пиров]
Размер:  1.1 GB   |    Зарегистрирован:  11 месяцев 27 дней   |    Скачан:  0 раз

Полного источника не было: Никогда

Личеров:  2  [  0 KB/s  ]   Подробная статистика пиров
 
   
 
 
 

[Цитировать]

Приют комедиантов. Выпуск 36. Фестивали
Жанр: Капустник
Год выпуска: 2012
Производство: ООО "Эксклюзив ТВ".
Продолжительность: 01:29:49
Режиссёр: Сергей Варновский
Ведущие: Екатерина Уфимцева, Михаил Швыдкой
В ролях: Алла Сурикова, Леонид Якубович, Михаил Ефремов, Дмитрий Певцов, Ольга Дроздова, Ивар Калныньш, Андрей Ташков, Клара Новикова, Олег Митяев, Дмитрий Харатьян, Эвклид Кюрдзидис, Гарик Сукачёв и другие.
Описание: Театральные и кинофестивали – это отдельная часть жизни каждого артиста. Интересная, насыщенная, суматошная, непредсказуемая. Гости "Приюта комедиантов" - люди известные, они прошли свой "фестивальный" путь: от номинантов-дебютантов до лауреатов-победителей и даже членов жюри.
Наверное, самая известная фестивальная песня – это песня Олега Митяева "Как здорово, что все мы здесь сегодня собрались". И автор исполнял её на многих фестивалях. Однажды Митяев спел свою жизнеутверждающую песню в женской колонии. О последствиях этого выступления зрители узнают от непосредственного участника событий.
В новом выпуске программы участники расскажут о том, что происходило на фестивалях в разные годы. А происходило там немало неожиданного и курьёзного!
Доп. информация: Премьерный телеэфир 28.09.2012
Семпл: http://multi-up.com/767226
Качество видео: SATRip
Формат видео: AVI
Аудио кодек: MP3
Видео кодек: DivX
Видео: 704x528 (1.33:1), 25 fps, DivX Codec 5.x or 6.x ~1549 kbps avg, 0.17 bit/pixel
Аудио: 48 kHz, MPEG Layer 3, 2 ch, ~192.00 kbps avg

MediaInfo

Общее
Полное имя : 36.Prijut.komediantov.Festivali.Satrip.by.igor0mr.avi
Формат : DivX
Формат/Информация : Hack of AVI
Размер файла : 1,10 Гбайт
Продолжительность : 1 ч. 29 м.
Общий поток : 1751 Кбит/сек
Видео
Идентификатор : 0
Формат : MPEG-4 Visual
Параметр BVOP формата : Нет
Параметр QPel формата : Нет
Параметр GMC формата : Без точки перехода
Параметр матрицы формата : Default (H.263)
Идентификатор кодека : DX50
Идентификатор кодека/Подсказка : DivX 5
Продолжительность : 1 ч. 29 м.
Битрейт : 1550 Кбит/сек
Ширина : 704 пикселя
Высота : 528 пикселей
Соотношение сторон : 4:3
Частота кадров : 25,000 кадров/сек
Цветовое пространство : YUV
Субдискретизация насыщенности : 4:2:0
Битовая глубина : 8 бит
Тип развёртки : Прогрессивная
Метод сжатия : С потерями
Бит/(Пиксели*Кадры) : 0.167
Размер потока : 996 Мбайт (88%)
Заголовок : Video
Библиотека кодирования : DivX 6.6.1.4
Аудио
Идентификатор : 1
Формат : MPEG Audio
Версия формата : Version 1
Профиль формата : Layer 3
Режим : Joint stereo
Расширение режима : MS Stereo
Идентификатор кодека : 55
Идентификатор кодека/Подсказка : MP3
Продолжительность : 1 ч. 29 м.
Вид битрейта : Постоянный
Битрейт : 192 Кбит/сек
Каналы : 2 канала
Частота : 48,0 КГц
Метод сжатия : С потерями
Размер потока : 123 Мбайт (11%)
Выравнивание : Разделение по промежуткам
Продолжительность промежутка : 40 мс. (1,00 видеокадр)
Время предзагрузки промежутка : 500 мс.
Заголовок : Audio
Библиотека кодирования : LAME3.96

СкриншотыСкриншот с названием



[teatrix.ru].t11223.torrent 
Торрент: Зарегистрирован [ 2015-12-07 13:40 ] · A7F130ADBA2CC82D6EE0938F3035132747B69327

Скачать .torrent

Скачать

12 KB

Статус: проверено
Скачан: 0 раз
Размер: 1.1 GB
terms.php



Быстрый ответ

Имя:

      
Для отправки сообщений необходимо включить JavaScript
Показать сообщения:    

Текущее время: 04-Дек 00:54

Часовой пояс: UTC + 3


Вы можете начинать темы
Вы можете отвечать на сообщения
Вы не можете редактировать свои сообщения
Вы не можете удалять свои сообщения
Вы не можете голосовать в опросах
Вы не можете прикреплять файлы к сообщениям
Вы можете скачивать файлы