Театр+ТВ. Юбилей В.А. Этуша (Сергей Варновский) [2003, Капустник, VHSRip]


Статистика раздачи [Обновить пиров]
Размер:  4.58 GB   |    Зарегистрирован:  1 год   |    Скачан:  0 раз

Полного источника не было: Никогда

Личеров:  2  [  0 KB/s  ]   Подробная статистика пиров
 
   
 
 
 

[Цитировать]

Театр+ТВ. Юбилей В.А. Этуша
Жанр: Капустник
Год выпуска: 2003
Продолжительность DVD-1: 00:50:04
Продолжительность DVD-2: 00:39:11
Общая продолжительность: 01:29:15
Режиссёр: Сергей Варновский
В ролях: В.А. Этуш и друзья.
Описание: Юбилей В.А. в клубе Театр+ТВ.
Качество видео: VHSRip
Формат видео: DVD Video
Аудио кодек: MP3
Видео кодек: MPEG-2
Видео: MPEG-2, 720x576, 4/3, 25.000 fps, 7 000 Kbps Variable
Аудио: Русский, MPEG-1 Layer-2, 48.0 KHz, 224 Kbps Constant, 2 channels

MediaInfo

Format : MPEG-PS
File size : 1 024 MiB
Duration : 19mn 25s
Overall bit rate mode : Variable
Overall bit rate : 7 370 Kbps
Video
ID : 224 (0xE0)
Format : MPEG Video
Format version : Version 2
Format profile : Main@Main
Format settings, BVOP : Yes
Format settings, Matrix : Custom
Format settings, GOP : M=3, N=12
Duration : 19mn 25s
Bit rate mode : Variable
Bit rate :
Maximum bit rate : 8 500 Kbps
Width : 720 pixels
Height : 576 pixels
Display aspect ratio : 4:3
Frame rate : 25.000 fps
Standard : PAL
Color space : YUV
Chroma subsampling : 4:2:0
Bit depth : 8 bits
Scan type : Progressive
Compression mode : Lossy
Bits/(Pixel*Frame) : 0.675
Stream size : 972 MiB (95%)
Color primaries : BT.470-2 System B, BT.470-2 System G
Transfer characteristics : BT.470-2 System B, BT.470-2 System G
Matrix coefficients : BT.470-2 System B, BT.470-2 System G
Audio
ID : 192 (0xC0)
Format : MPEG Audio
Format version : Version 1
Format profile : Layer 2
Duration : 19mn 25s
Bit rate mode : Constant
Bit rate : 224 Kbps
Channel(s) : 2 channels
Sampling rate : 48.0 KHz
Compression mode : Lossy
Delay relative to video : -504ms
Stream size : 31.1 MiB (3%)
Menu

Скриншоты

[teatrix.ru].t11226.torrent 
Торрент: Зарегистрирован [ 2015-12-07 13:40 ] · 051E439321BE0C6AFDF3ECD5F147E0F3D5F872B8

Скачать .torrent

Скачать

14 KB

Статус: проверено
Скачан: 0 раз
Размер: 4.58 GB
terms.php



Быстрый ответ

Имя:

      
Для отправки сообщений необходимо включить JavaScript
Показать сообщения:    

Текущее время: 09-Дек 12:42

Часовой пояс: UTC + 3


Вы можете начинать темы
Вы можете отвечать на сообщения
Вы не можете редактировать свои сообщения
Вы не можете удалять свои сообщения
Вы не можете голосовать в опросах
Вы не можете прикреплять файлы к сообщениям
Вы можете скачивать файлы