Театр+ТВ. Новоселье в новом доме (Сергей Варновский) [2005, Капустник, TVRip]


Статистика раздачи [Обновить пиров]
Размер:  451 MB   |    Зарегистрирован:  1 год   |    Скачан:  0 раз

Полного источника не было: Никогда

 
   
 
 
 

[Цитировать]

Театр+ТВ. Новоселье в cтаром доме
Жанр: Капустник
Год выпуска: 2005
Продолжительность: 01:29:00
Режиссёр: Сергей Варновский
В ролях: Все тут.
Описание: «Театр+ТВ» на телеканале «Россия» одна из самых «непоседливых» программ. Ее съемочная площадка неоднократно меняла свой адрес. И вот 20 марта виртуальные посиделки актерской братии выйдут в эфир опять из новой студии. Ею станет ресторан под названием «Клуб Театр+ТВ в ЦДЛ». Знаменитые театральные деятели соберутся в стенах Дома литераторов вместе с ведущими Екатериной Уфимцевой и Михаилом Швыдким, чтобы отпраздновать новоселье. За дружеским столом Сергей Соловьев припомнит, как ходил на балет в Большой театр, Леонид Ярмольник признается, что заставило его открыть в новом ресторане клуб матери и ребенка. Николай Чиндяйкин взгрустнет о разбитой бутылке водки, Ольга Аросева вспомнит, где она и Татьяна Пельтцер прятались от рассерженных родителей. Николай Цискаридзе и Гедиминас Таранда исполнят импровизацию на тему грузинских народных танцев, а Тамара Гвердцетели, Валерий Яременко, Екатерина Семенова и Дмитрий Харатьян отпразднуют новоселье песнями.
Качество видео: TVRip
Формат видео: WMV
Аудио кодек: WMA
Видео кодек: WMV
Видео: WMV, 320x240, 4:3, 25.000 fps, 632 Kbps const
Аудио: Русский, WMA, 44.1 KHz, 64.0 Kbps const, 2 channels

MediaInfo

Format : Windows Media
File size : 451 MiB
Duration : 1h 29mn
Overall bit rate mode : Constant
Overall bit rate : 700 Kbps
Maximum Overall bit rate : 706 Kbps
Performer : Администратор
Encoded date : UTC 2005-06-10 07:52:07.405
Copyright : 10.06.2005
Video
ID : 2
Format : WMV1
Codec ID : WMV1
Codec ID/Info : Windows Media Video 7
Description of the codec : Windows Media Video V7
Duration : 1h 29mn
Bit rate mode : Constant
Bit rate : 632 Kbps
Width : 320 pixels
Height : 240 pixels
Display aspect ratio : 4:3
Frame rate : 25.000 fps
Nominal frame rate : 30.000 fps
Bit depth : 8 bits
Bits/(Pixel*Frame) : 0.329
Stream size : 407 MiB (90%)
Language : Russian
Audio
ID : 1
Format : WMA
Format version : Version 2
Codec ID : 161
Codec ID/Info : Windows Media Audio
Description of the codec : Windows Media Audio 9 - 64 kbps, 44 kHz, stereo (A/V) 1-pass CBR
Duration : 1h 29mn
Bit rate mode : Constant
Bit rate : 64.0 Kbps
Channel(s) : 2 channels
Sampling rate : 44.1 KHz
Bit depth : 16 bits
Stream size : 41.2 MiB (9%)
Language : Russian

Скриншоты






[teatrix.ru].t11238.torrent 
Торрент: Зарегистрирован [ 2015-12-07 13:40 ] · 549B142A5DA8B879EFB168AE858BD8A9AA1E8FBE

Скачать .torrent

Скачать

18 KB

Статус: проверено
Скачан: 0 раз
Размер: 451 MB
terms.php



Быстрый ответ

Имя:

      
Для отправки сообщений необходимо включить JavaScript
Показать сообщения:    

Текущее время: 10-Дек 21:30

Часовой пояс: UTC + 3


Вы можете начинать темы
Вы можете отвечать на сообщения
Вы не можете редактировать свои сообщения
Вы не можете удалять свои сообщения
Вы не можете голосовать в опросах
Вы не можете прикреплять файлы к сообщениям
Вы можете скачивать файлы