Борис Савельевич Ласкин - Шоумен со стажем (Марина Дроздова, Александр Киселев) [2007, Документальный, кинематограф, биография, SATRip]


Статистика раздачи [Обновить пиров]
Размер:  547 MB   |    Зарегистрирован:  1 год   |    Скачан:  0 раз

Полного источника не было: Никогда

 
   
 
 
 

[Цитировать]

Борис Савельевич Ласкин - Шоумен со стажем
Дата/Год выпуска: 2007
Страна: Россия, ГТРК "Культура"
Жанр: Документальный, кинематограф, биография
Продолжительность: 00:39:31
Перевод: Не требуется
Русские субтитры: нет
Режиссер: Марина Дроздова, Александр Киселев
Описание: Фильм рассказывает об известной фигуре эстрады 40-70-х Борисе Савельевиче Ласкине. Он автор многих известных песен, сценарист фильмов "Карнавальная ночь", "Дайте жалобную книгу", "Большая жизнь", "Трактористы". Как оставаться веселым, несмотря на политику и погоду?
В фильме участвуют: писатель Аркадий Арканов, режиссер Иван Дыховичный, художник Борис Жутовский, сценарист Яков Костюковский.
качество: SATRip
формат: AVI
Видео: XviD, 1799 Кбит/с, 688х528
Аудио: MP3, 2 ch, 128 Кбит/с

MediaInfo

Complete name : D:\TV\Борис Ласкин.Шоумен со стажем.2007.SATRip.aviFormat : AVIFormat/Info : Audio Video InterleaveFile size : 547 MiBDuration : 39mn 31sOverall bit rate : 1 936 KbpsWriting application : VirtualDubMod 1.5.10.3 | www.virtualdub-fr.org || (build 2550/release)Writing library : VirtualDubMod build 2550/release
VideoID : 0Format : MPEG-4 VisualFormat profile : Advanced Simple@L5Format settings, BVOP : 2Format settings, QPel : NoFormat settings, GMC : No warppointsFormat settings, Matrix : Default (MPEG)Codec ID : XVIDCodec ID/Hint : XviDDuration : 39mn 31sBit rate : 1 799 KbpsWidth : 688 pixelsHeight : 528 pixelsDisplay aspect ratio : 4:3Frame rate : 25.000 fpsColor space : YUVChroma subsampling : 4:2:0Bit depth : 8 bitsScan type : ProgressiveCompression mode : LossyBits/(Pixel*Frame) : 0.198Stream size : 509 MiB (93%)Writing library : XviD 1.2.1 (UTC 2008-12-04)
AudioID : 1Format : MPEG AudioFormat version : Version 1Format profile : Layer 3Codec ID : 55Codec ID/Hint : MP3Duration : 39mn 31sBit rate mode : ConstantBit rate : 128 KbpsChannel(s) : 2 channelsSampling rate : 48.0 KHzCompression mode : LossyStream size : 36.2 MiB (7%)Alignment : Aligned on interleavesInterleave, duration : 40 ms (1.00 video frame)Interleave, preload duration : 504 msWriting library : LAME3.99rEncoding settings : -m s -V 4 -q 2 -lowpass 17 -b 128

Скриншоты


[teatrix.ru].t11269.torrent 
Торрент: Зарегистрирован [ 2015-12-07 13:40 ] · 9703B8956B54CEE331B9E7F2D04D1D693F4BFBE3

Скачать .torrent

Скачать

11 KB

Статус: проверено
Скачан: 0 раз
Размер: 547 MB
terms.php



Быстрый ответ

Имя:

      
Для отправки сообщений необходимо включить JavaScript
Показать сообщения:    

Текущее время: 09-Дек 16:30

Часовой пояс: UTC + 3


Вы можете начинать темы
Вы можете отвечать на сообщения
Вы не можете редактировать свои сообщения
Вы не можете удалять свои сообщения
Вы не можете голосовать в опросах
Вы не можете прикреплять файлы к сообщениям
Вы можете скачивать файлы