Юрий Силантьев - Неоконченная пьеса для оркестра (Сергей Сидоренко) [2009, Документальный, музыка, биография, SATRip]


Статистика раздачи [Обновить пиров]
Размер:  462 MB   |    Зарегистрирован:  11 месяцев   |    Скачан:  0 раз

Полного источника не было: Никогда

Личеров:  1  [  0 KB/s  ]   Подробная статистика пиров
 
   
 
 
 

[Цитировать]

Юрий Силантьев - Неоконченная пьеса для оркестра
Дата/Год выпуска: 2009
Страна: Россия, ГТРК "Культура"
Жанр: Документальный, музыка, биография
Продолжительность: 00:37:12
Перевод: Не требуется
Русские субтитры: нет
Режиссер: Сергей Сидоренко
Описание: Юрий Силантьев - знаменитый дирижер, четверть века руководивший Эстрадно-симфоническим оркестром телевидения и радио, талантливый скрипач, чье имя высечено на золотой доске в Московской консерватории. С 1958 года он стал мотором целого направления в отечественной музыке. Авторские вечера в Колонном зале Дома Союзов с участием Юрия Силантьева и его оркестра - своего рода бренд того времени.
О Силантьеве вспоминают: Александра Пахмутова, Николай Добронравов, Тихон Хренников (Съемка 1984 года), Александр Журбин, Иосиф Кобзон, Тамара Гвердцители, Валерий Золотухин, Лев Лещенко, сын Юрия Васильевича Егор, руководитель оркестра им. Ю.В. Силантьева Александр Клевицкий. Использованы уникальные архивные материалы, фотографии и фрагменты исторических концертов с участием К. Шульженко, Г. Отса, Т. Синявской, М. Магомаева.
качество: SATRip
формат: AVI
Видео: XviD, 1600 Кбит/с, 704x448
Аудио: MP3, 2 ch, 128 Кбит/с

MediaInfo

Complete name : D:\TV\Силантьев.aviFormat : AVIFormat/Info : Audio Video InterleaveFile size : 462 MiBDuration : 37mn 12sOverall bit rate : 1 738 KbpsWriting application : VirtualDubMod 1.5.10.3 | www.virtualdub-fr.org || (build 2550/release)Writing library : VirtualDubMod build 2550/release
VideoID : 0Format : MPEG-4 VisualFormat profile : Advanced Simple@L5Format settings, BVOP : 2Format settings, QPel : NoFormat settings, GMC : No warppointsFormat settings, Matrix : Default (MPEG)Codec ID : XVIDCodec ID/Hint : XviDDuration : 37mn 12sBit rate : 1 600 KbpsWidth : 704 pixelsHeight : 448 pixelsDisplay aspect ratio : 1.571Frame rate : 25.000 fpsColor space : YUVChroma subsampling : 4:2:0Bit depth : 8 bitsScan type : ProgressiveCompression mode : LossyBits/(Pixel*Frame) : 0.203Stream size : 426 MiB (92%)Writing library : XviD 1.2.1 (UTC 2008-12-04)
AudioID : 1Format : MPEG AudioFormat version : Version 1Format profile : Layer 3Codec ID : 55Codec ID/Hint : MP3Duration : 37mn 12sBit rate mode : ConstantBit rate : 128 KbpsChannel(s) : 2 channelsSampling rate : 48.0 KHzCompression mode : LossyStream size : 34.1 MiB (7%)Alignment : Aligned on interleavesInterleave, duration : 40 ms (1.00 video frame)Interleave, preload duration : 504 msWriting library : LAME3.99rEncoding settings : -m s -V 4 -q 2 -lowpass 17 -b 128

Скриншоты



[teatrix.ru].t11270.torrent 
Торрент: Зарегистрирован [ 2015-12-07 13:40 ] · 3302E8F5D90F63F330DE9B384C4598F63DC75361

Скачать .torrent

Скачать

10 KB

Статус: проверено
Скачан: 0 раз
Размер: 462 MB
terms.php



Быстрый ответ

Имя:

      
Для отправки сообщений необходимо включить JavaScript
Показать сообщения:    

Текущее время: 07-Дек 11:35

Часовой пояс: UTC + 3


Вы можете начинать темы
Вы можете отвечать на сообщения
Вы не можете редактировать свои сообщения
Вы не можете удалять свои сообщения
Вы не можете голосовать в опросах
Вы не можете прикреплять файлы к сообщениям
Вы можете скачивать файлы