Ирония судьбы, или Юрий Яковлев - Кто вы? (Ирина Ланина) [2007 г., документальный, SATRip]


Статистика раздачи [Обновить пиров]
Размер:  408 MB   |    Зарегистрирован:  1 год   |    Скачан:  0 раз

Полного источника не было: Никогда

 
   
 
 
 

[Цитировать]

Ирония судьбы, или Юрий Яковлев - Кто вы?
Год выпуска: 2007
Страна: Россия
Жанр: Документальный
Продолжительность: 00:43:53
Перевод: Не требуется
Русские субтитры: нет
Режиссёр: Ирина Ланина
Телеканал: Россия/ВГТРК
Описание:
Ирония судьбы Юрия Яковлева
Авторы фильма провели необычное расследование. Они решили разобраться, какая из многочисленных ролей замечательного актёра Юрия Васильевича Яковлева наиболее близка к его личности.
Доп. информация:
Фильм без логотипа телеканала!
Качество: SATRip
Формат: MP4
Видео: AVC, 704x528 (1.33:1), 4:3, ~1600 kbps, 25.00 fps
Аудио: AAC, 96.0 kbps, 48 kHz, 2 ch

MediaInfo

Формат : MPEG-4Идентификатор кодека : M4VРазмер файла : 408 МбайтПродолжительность : 43 м.Режим общего битрейта : ПеременныйОбщий поток : 1299 Кбит/сек
ВидеоИдентификатор : 1Формат : AVCФормат/Информация : Advanced Video CodecПрофиль формата : High@L3.0Параметр CABAC формата : ДаПараметр ReFrames формата : 3 кадраПараметр GOP формата : M=3, N=75Идентификатор кодека : avc1Идентификатор кодека/Информация : Advanced Video CodingПродолжительность : 43 м.Вид битрейта : ПостоянныйБитрейт : 1200 Кбит/секМаксимальный битрейт : 2528 Кбит/секШирина : 704 пикселяВысота : 528 пикселейСоотношение сторон : 4:3Режим частоты кадров : ПостоянныйЧастота кадров : 25,000 кадров/секЦветовое пространство : YUVСубдискретизация насыщенности : 4:2:0Битовая глубина : 8 битТип развёртки : ПрогрессивнаяБит/(Пиксели*Кадры) : 0.129Размер потока : 377 Мбайт (92%)
АудиоИдентификатор : 2Формат : AACФормат/Информация : Advanced Audio CodecПрофиль формата : LCИдентификатор кодека : 40Продолжительность : 43 м.Вид битрейта : ПеременныйБитрейт : 96,0 Кбит/секМаксимальный битрейт : 97,5 Кбит/секКаналы : 2 каналаРасположение каналов : Front: L RЧастота : 48,0 КГцМетод сжатия : С потерямиРазмер потока : 29,3 Мбайт (7%)Язык : Russian

Краткая биография Юрия Яковлева

Яковлев Юрий Васильевич - (родился 25 апреля 1928, Москва, СССР — умер 30 ноября 2013, Москва, Российская Федерация) советский и российский актёр театра и кино.
Народный артист СССР (1976). Лауреат Государственной премии СССР (1979). Один из самых популярных актёров Советского Союза, исполнитель более 100 ролей в театре и кино.
Крупнейший мастер как комедийного («Гусарская баллада», «Иван Васильевич меняет профессию», «Ирония судьбы, или С лёгким паром!», «Кин-дза-дза»),
так и драматического («Идиот», «Опасный поворот», «Любовь земная») жанров. Ведущий артист театра имени Вахтангова периода его расцвета.
Величайший мастер актёрского искусства!
[teatrix.ru].t11271.torrent 
Торрент: Зарегистрирован [ 2015-12-07 13:40 ] · E0F44867BB628F4FE55F4F874CFCA5BECAF1F862

Скачать .torrent

Скачать

17 KB

Статус: проверено
Скачан: 0 раз
Размер: 408 MB
terms.php



Быстрый ответ

Имя:

      
Для отправки сообщений необходимо включить JavaScript
Показать сообщения:    

Текущее время: 10-Дек 10:00

Часовой пояс: UTC + 3


Вы можете начинать темы
Вы можете отвечать на сообщения
Вы не можете редактировать свои сообщения
Вы не можете удалять свои сообщения
Вы не можете голосовать в опросах
Вы не можете прикреплять файлы к сообщениям
Вы можете скачивать файлы