Ален Делон. Интервью для журнала "Premiere" (1969) [1969, интервью, WEBRip]


Статистика раздачи [Обновить пиров]
Размер:  102 MB   |    Зарегистрирован:  11 месяцев 26 дней   |    Скачан:  0 раз

Полного источника не было: Никогда

 
   
 
 
 

[Цитировать]

Ален Делон. Интервью для журнала "Premiere" (1969)
Год выпуска: 1969
Страна: Франция
Жанр: интервью
Продолжительность: 00:14:47
Перевод: Субтитры
Русские субтитры: есть
Формат субтитров: softsub (SRT)
Оригинальная аудиодорожка: французский
Телеканал: VRT
Описание: В связи с выходом фильма "Джефф", французский актер Ален Делон дал обширное интервью для журнала "Premiere" (12 января 1969 года)...-Особая благодарность:
тайминг и субтитры - dsa69
спонсорская поддержка - Aleks Punk
видео и перевод - alain-delon.ru
-Сэмпл: http://sendfile.su/1007967-качество: WEBRip
формат: AVI
Видео: FMP4 640x360 25.00fps 825 Kbps
Аудио: MPEG Audio 44100Hz mono 128kbps

MediaInfo

GeneralComplete name : D:\TORRENT\Интервью Делона 1969\Интервью Делона 1969.aviFormat : AVIFormat/Info : Audio Video InterleaveFile size : 102 MiBDuration : 14mn 47sOverall bit rate : 966 KbpsWriting application : Lavf52.93.0Copyright : VRT
VideoID : 0Format : MPEG-4 VisualFormat profile : Simple@L1Format settings, BVOP : NoFormat settings, QPel : NoFormat settings, GMC : No warppointsFormat settings, Matrix : Default (H.263)Codec ID : FMP4Duration : 14mn 47sBit rate : 825 KbpsWidth : 640 pixelsHeight : 360 pixelsDisplay aspect ratio : 16:9Frame rate : 25.000 fpsColor space : YUVChroma subsampling : 4:2:0Bit depth : 8 bitsScan type : ProgressiveCompression mode : LossyBits/(Pixel*Frame) : 0.143Stream size : 87.3 MiB (85%)Writing library : Lavc52.108.0
AudioID : 1Format : MPEG AudioFormat version : Version 1Format profile : Layer 2Codec ID : 50Duration : 14mn 47sBit rate mode : ConstantBit rate : 128 KbpsChannel(s) : 1 channelSampling rate : 44.1 KHzCompression mode : LossyStream size : 13.5 MiB (13%)Alignment : Aligned on interleavesInterleave, duration : 26 ms (0.65 video frame)

Скриншоты

Пример субтитров

1
00:00:00,193 --> 00:00:07,385
В последнее время Вы начали вкладывать деньги в фильмы,
брать проекты под личную ответственность.
2
00:00:07,385 --> 00:00:13,004
Вам недостаточно того, что Вы — крупная звезда.
Итак, Вы решили заняться продюсерством.
3
00:00:13,794 --> 00:00:17,040
Что же... подтолкнуло Вас на это?
4
00:00:18,139 --> 00:00:20,982
В первую очередь, быть продюсером...
5
00:00:20,982 --> 00:00:26,394
В общем, нужно начать с начала. Я работаю в
слаженном коллективе вот уже почти 10 лет.
[teatrix.ru].t11272.torrent 
Торрент: Зарегистрирован [ 2015-12-07 13:40 ] · 70E505ECFA4524D2B330E1EB4264FCE97EE50AD0

Скачать .torrent

Скачать

17 KB

Статус: проверено
Скачан: 0 раз
Размер: 102 MB
terms.php



Быстрый ответ

Имя:

      
Для отправки сообщений необходимо включить JavaScript
Показать сообщения:    

Текущее время: 02-Дек 21:11

Часовой пояс: UTC + 3


Вы можете начинать темы
Вы можете отвечать на сообщения
Вы не можете редактировать свои сообщения
Вы не можете удалять свои сообщения
Вы не можете голосовать в опросах
Вы не можете прикреплять файлы к сообщениям
Вы можете скачивать файлы