Анатолий Лебедь. Досье русского Рэмбо [Россия 01.08.2014] (Валерий Довбня) [2014 г., Документальный, военный, DVB]


Статистика раздачи [Обновить пиров]
Размер:  3.22 GB   |    Зарегистрирован:  11 месяцев   |    Скачан:  1 раз

Полного источника не было: 1 месяц 5 дней

 
   
 
 
 

[Цитировать]

Анатолий Лебедь. Досье русского Рэмбо
Премьера на канале РОССИЯ!
Год выпуска: 2014 г.
Страна: Россия
Жанр: Документальный, военный
Продолжительность: 00:44:22
Автор и режиссер: Валерий Довбня
Pежиссер: Денис Мелузов
Перевод: Не требуется
Русские субтитры: нет
Описание: Два года назад при трагических обстоятельствах погиб Герой России гвардии подполковник Анатолий Лебедь. Последние 13 лет своей жизни Анатолий отдал спецназу ВДВ. О его жизни известно мало. Во-первых, потому что то, чем он занимался, зачастую не выносят на первые полосы газет, а во-вторых, сам Лебедь был очень немногословен и не любил рассказывать о своем прошлом. Благодаря прессе за ним прочно закрепилась кличка Человек-война, но только самые близкие люди знали, что на самом деле Анатолий был настоящим Человеком-миром.
Качество: DVB
Формат: MPEG-PS
Видео: MPEG2 Video, 720x576 (4:3), 25 fps, 9900 kbps
Аудио: MPEG Audiо, 2 сh, 48 kHz, 224 kbps

MediaInfo:

ОбщееПолное имя : D:\Torrents\Anatolij_Lebed'-Dos'e_russkogo_Rehmbo_(ROSSIJA)-01.08.2014_[rutracker.org].mpgФормат : MPEG-PSРазмер файла : 3,22 ГбайтПродолжительность : 44 м.Общий поток : 10,4 Мбит/секБиблиотека кодирования : (c) 1998-2012 Womble Multimedia, Inc. / MPEG Video Wizard DVD 5.0.1.100 (03/2011) / Sep 7 2012
ВидеоИдентификатор : 224 (0xE0)Формат : MPEG VideoВерсия формата : Version 2Профиль формата : High@HighПараметр BVOP формата : ДаПараметр матрицы формата : По умолчаниюПараметр GOP формата : M=3, N=15Продолжительность : 44 м.Битрейт : 10,0 Мбит/секШирина : 720 пикселейВысота : 576 пикселейСоотношение сторон : 4:3Частота кадров : 50,000 кадров/секСтандарт вещания : PALЦветовое пространство : YUVСубдискретизация насыщенности : 4:2:0Битовая глубина : 8 битТип развёртки : ПрогрессивнаяМетод сжатия : С потерямиБит/(Пиксели*Кадры) : 0.484Размер потока : 3,09 Гбайт (96%)Выравнивание : (c) 1998-2012 Womble Multimedia, Inc. / MPEG Video Wizard DVD 5.0.1.100 (03/2011) / Sep 7 2012Заголовок : (c) 1998-2012 Womble Multimedia, Inc. / MPEG Video Wizard DVD 5.0.1.100 (03/2011) / Sep 7 2012Библиотека кодирования : (c) 1998-2012 Womble Multimedia, Inc. / MPEG Video Wizard DVD 5.0.1.100 (03/2011) / Sep 7 2012Основные цвета : BT.601 PALХарактеристики трансфера : BT.470 System B, BT.470 System GКоэффициенты матрицы : BT.601
АудиоИдентификатор : 192 (0xC0)Формат : MPEG AudioВерсия формата : Version 1Профиль формата : Layer 2Продолжительность : 44 м.Вид битрейта : ПостоянныйБитрейт : 224 Кбит/секКаналы : 2 каналаЧастота : 48,0 КГцМетод сжатия : С потерямиЗадержка видео : -40 мс.Размер потока : 71,1 Мбайт (2%)

Скриншоты (превью, увеличение по клику):

На раздаче по возможности, ~20 Mb/s. > [Что от меня зависит, сделал. Остальное зависит от Вас, трекера и наших провайдеров.]
[teatrix.ru].t11273.torrent 
Торрент: Зарегистрирован [ 2015-12-07 13:40 ] · A54A93BE6379AE3699C6F566A5125A6E13E81FB0

Скачать .torrent

Скачать

17 KB

Статус: проверено
Скачан: 1 раз
Размер: 3.22 GB
terms.php



Быстрый ответ

Имя:

      
Для отправки сообщений необходимо включить JavaScript
Показать сообщения:    

Текущее время: 06-Дек 11:15

Часовой пояс: UTC + 3


Вы можете начинать темы
Вы можете отвечать на сообщения
Вы не можете редактировать свои сообщения
Вы не можете удалять свои сообщения
Вы не можете голосовать в опросах
Вы не можете прикреплять файлы к сообщениям
Вы можете скачивать файлы