Последняя весна Николая Ерёменко (Михаил Ананьев) [2014, Документальный, биография, кинематограф, SATRip]


Статистика раздачи [Обновить пиров]
Размер:  431 MB   |    Зарегистрирован:  1 год 1 месяц   |    Скачан:  0 раз

Полного источника не было: Никогда

 
   
 
 
 

[Цитировать]

Последняя весна Николая Ерёменко
Дата/Год выпуска: 2014
Страна: Россия, ООО "Студия 8"
Жанр: Документальный, биография, кинематограф
Продолжительность: 00:36:49
Перевод: Не требуется
Русские субтитры: нет
Режиссер: Михаил Ананьев
Описание: В жизни Николай Ерёменко был совсем не похож на своих экранных героев. Любил уединение, сторонился шумных компаний. Он ушёл из жизни в тот момент, когда был полон творческих планов. Об этом Ерёменко рассказал журналисту Дмитрию Горину в своём интервью летом 2000-го года. Как оказалось, это было последнее телевизионное интервью Николая Ерёменко. В этом фильме оно показано впервые.
качество: SATRip
формат: AVI
Видео: XviD, 1500 Кбит/с, 704х400
Аудио: MP3, 2 ch, 128 Кбит/с

MediaInfo

Complete name : D:\Golubkina\Последняя весна Николая Еременко.2014.SATRip.aviFormat : AVIFormat/Info : Audio Video InterleaveFile size : 431 MiBDuration : 36mn 49sOverall bit rate : 1 638 KbpsWriting application : VirtualDubMod 1.5.10.3 | www.virtualdub-fr.org || (build 2550/release)Writing library : VirtualDubMod build 2550/release
VideoID : 0Format : MPEG-4 VisualFormat profile : Advanced Simple@L5Format settings, BVOP : 2Format settings, QPel : NoFormat settings, GMC : No warppointsFormat settings, Matrix : Default (H.263)Codec ID : XVIDCodec ID/Hint : XviDDuration : 36mn 49sBit rate : 1 500 KbpsWidth : 704 pixelsHeight : 400 pixelsDisplay aspect ratio : 16:9Frame rate : 25.000 fpsColor space : YUVChroma subsampling : 4:2:0Bit depth : 8 bitsScan type : ProgressiveCompression mode : LossyBits/(Pixel*Frame) : 0.213Stream size : 395 MiB (92%)Writing library : XviD 1.2.1 (UTC 2008-12-04)
AudioID : 1Format : MPEG AudioFormat version : Version 1Format profile : Layer 3Codec ID : 55Codec ID/Hint : MP3Duration : 36mn 49sBit rate mode : ConstantBit rate : 128 KbpsChannel(s) : 2 channelsSampling rate : 48.0 KHzCompression mode : LossyStream size : 33.7 MiB (8%)Alignment : Aligned on interleavesInterleave, duration : 40 ms (1.00 video frame)Interleave, preload duration : 504 msWriting library : LAME3.99rEncoding settings : -m s -V 4 -q 2 -lowpass 17 -b 128

Скриншоты


[teatrix.ru].t11274.torrent 
Торрент: Зарегистрирован [ 2015-12-07 13:40 ] · 07A7C4DD008B3BFFB3D8E0B46515B2ABCF11AB32

Скачать .torrent

Скачать

9 KB

Статус: проверено
Скачан: 0 раз
Размер: 431 MB
terms.php



Быстрый ответ

Имя:

      
Для отправки сообщений необходимо включить JavaScript
Показать сообщения:    

Текущее время: 20-Янв 14:59

Часовой пояс: UTC + 3


Вы можете начинать темы
Вы можете отвечать на сообщения
Вы не можете редактировать свои сообщения
Вы не можете удалять свои сообщения
Вы не можете голосовать в опросах
Вы не можете прикреплять файлы к сообщениям
Вы можете скачивать файлы