Неизвестные Михалковы (Сергей Сунцов) [2013, Документальный, биография, искусство, WEBRip]


Статистика раздачи [Обновить пиров]
Размер:  720 MB   |    Зарегистрирован:  1 год   |    Скачан:  0 раз

Полного источника не было: Никогда

Личеров:  1  [  0 KB/s  ]   Подробная статистика пиров
 
   
 
 
 

[Цитировать]

Неизвестные Михалковы
Дата/Год выпуска: 2013
Страна: Россия, ООО "ЗИМА Продакшн"
Жанр: Документальный, биография, искусство
Продолжительность: 00:51:59
Перевод: Не требуется
Русские субтитры: нет
Режиссер: Сергей Сунцов
Описание: Неизвестные подробности из жизни большой творческой семьи Михалковых, их непростые взаимоотношения, взаимная поддержка и любовь. В фильме использованы эксклюзивные интервью Сергея Михалкова, сыновей Андрона и Никиты, внука Егора Кончаловского, родных и близких.
Участвуют: Илья Глазунов, Василий Ливанов, духовник семьи Михалковых, Александр Адабашьян и другие.
качество: WEBRip
формат: AVI
Видео: XviD, 1800 Кбит/с, 704x384
Аудио: MP3, 2 ch, 128 Кбит/с

MediaInfo

Complete name : D:\Golubkina\Неизвестные Михалковы.2013.WEBRip.aviFormat : AVIFormat/Info : Audio Video InterleaveFile size : 720 MiBDuration : 51mn 59sOverall bit rate : 1 937 KbpsWriting application : VirtualDubMod 1.5.10.3 | www.virtualdub-fr.org || (build 2550/release)Writing library : VirtualDubMod build 2550/release
VideoID : 0Format : MPEG-4 VisualFormat profile : Advanced Simple@L5Format settings, BVOP : 2Format settings, QPel : NoFormat settings, GMC : No warppointsFormat settings, Matrix : Default (MPEG)Codec ID : XVIDCodec ID/Hint : XviDDuration : 51mn 59sBit rate : 1 800 KbpsWidth : 704 pixelsHeight : 384 pixelsDisplay aspect ratio : 16:9Frame rate : 25.000 fpsColor space : YUVChroma subsampling : 4:2:0Bit depth : 8 bitsScan type : ProgressiveCompression mode : LossyBits/(Pixel*Frame) : 0.266Stream size : 669 MiB (93%)Writing library : XviD 1.2.1 (UTC 2008-12-04)
AudioID : 1Format : MPEG AudioFormat version : Version 1Format profile : Layer 3Codec ID : 55Codec ID/Hint : MP3Duration : 51mn 59sBit rate mode : ConstantBit rate : 128 KbpsChannel(s) : 2 channelsSampling rate : 48.0 KHzCompression mode : LossyStream size : 47.6 MiB (7%)Alignment : Aligned on interleavesInterleave, duration : 40 ms (1.00 video frame)Interleave, preload duration : 504 msWriting library : LAME3.99rEncoding settings : -m s -V 4 -q 2 -lowpass 17 -b 128

Скриншоты



[teatrix.ru].t11275.torrent 
Торрент: Зарегистрирован [ 2015-12-07 13:40 ] · 13A6FBC03CA608B9445F4258C0274CEE42AD98E0

Скачать .torrent

Скачать

15 KB

Статус: проверено
Скачан: 0 раз
Размер: 720 MB
terms.php



Быстрый ответ

Имя:

      
Для отправки сообщений необходимо включить JavaScript
Показать сообщения:    

Текущее время: 08-Дек 17:25

Часовой пояс: UTC + 3


Вы можете начинать темы
Вы можете отвечать на сообщения
Вы не можете редактировать свои сообщения
Вы не можете удалять свои сообщения
Вы не можете голосовать в опросах
Вы не можете прикреплять файлы к сообщениям
Вы можете скачивать файлы