Игорь Крутой. Любовь, похожая на сон [2009/2014, Документальный, DVB]


Статистика раздачи [Обновить пиров]
Размер:  1.7 GB   |    Зарегистрирован:  11 месяцев 27 дней   |    Скачан:  0 раз

Полного источника не было: Никогда

 
   
 
 
 

[Цитировать]

Игорь Крутой. Любовь, похожая на сон
Год выпуска: 2009/2014
Страна: Россия
Жанр: Документальный
Продолжительность: 01:14:53
Перевод: Не требуется
Русские субтитры: нет
Телеканал: МУЗ-ТВ
Описание: Документальный программа к юбилею Игоря Яковлевича Крутого. В 2014 году ему исполнилось 60 лет! Игорь Крутой — заслуженный деятель искусств РФ (1991), народный артист России (1996). За заслуги в области музыкального искусства в 1989 году Игорю Крутому была присвоена премия Ленинского комсомола. Награжден орденами Дружбы (2004), "За заслуги перед Отечеством" III (2014) и IV степеней (2009).
Данный фильм - расширенная версия проекта "Крутой маршрут Игоря Крутого" показанного на телеканале Россия в 2009 году.
Источник: собственный рип
Доп. информация: Релиз -

Рип чистый. Без посторонних надписей. Выкладывается как есть.
Качество: DVB
Формат: MPG
Видео кодек: MPG2
Аудио кодек: MP2
Видео: 720x576 @ 768x576 (4:3) 25.00fps 2 988 Kbps, 0.288 bit/pixel
Аудио: MPEG Audio 48000Hz 2 channels 192 Кбит/сек

MediaInfo

GeneralComplete name : H:\МУЗ-ТВ (MPEG)\Игорь Крутой. Любовь похожая на сон (2009-2014, Документальный, DVB) (MYDIMKA).mpgFormat : MPEG-PSFile size : 1.70 GiBDuration : 1h 14mnOverall bit rate mode : VariableOverall bit rate : 3 245 Kbps
VideoID : 224 (0xE0)Format : MPEG VideoFormat version : Version 2Format profile : Main@MainFormat settings, BVOP : YesFormat settings, Matrix : CustomFormat settings, GOP : VariableDuration : 1h 14mnBit rate mode : VariableBit rate : 2 988 KbpsMaximum bit rate : 15.0 MbpsWidth : 720 pixelsHeight : 576 pixelsDisplay aspect ratio : 4:3Frame rate : 25.000 fpsStandard : PALColor space : YUVChroma subsampling : 4:2:0Bit depth : 8 bitsScan type : InterlacedScan order : Top Field FirstCompression mode : LossyBits/(Pixel*Frame) : 0.288Time code of first frame : 00:00:00:00Time code source : Group of pictures headerStream size : 1.56 GiB (92%)
AudioID : 192 (0xC0)Format : MPEG AudioFormat version : Version 1Format profile : Layer 2Duration : 1h 14mnBit rate mode : ConstantBit rate : 192 KbpsChannel(s) : 2 channelsSampling rate : 48.0 KHzCompression mode : LossyStream size : 103 MiB (6%)

Скриншоты


Скринлисты

[teatrix.ru].t11276.torrent 
Торрент: Зарегистрирован [ 2015-12-07 13:40 ] · 24CE71B2AD2AD346C58CC40D0AF9D8A03C46B98D

Скачать .torrent

Скачать

18 KB

Статус: проверено
Скачан: 0 раз
Размер: 1.7 GB
terms.php



Быстрый ответ

Имя:

      
Для отправки сообщений необходимо включить JavaScript
Показать сообщения:    

Текущее время: 03-Дек 18:40

Часовой пояс: UTC + 3


Вы можете начинать темы
Вы можете отвечать на сообщения
Вы не можете редактировать свои сообщения
Вы не можете удалять свои сообщения
Вы не можете голосовать в опросах
Вы не можете прикреплять файлы к сообщениям
Вы можете скачивать файлы