Лев Кулиджанов. Когда деревья были большими (Андрей А. Эшпай) [2001, Документальный, биография, кинематограф, SATRip]


Статистика раздачи [Обновить пиров]
Размер:  623 MB   |    Зарегистрирован:  1 год   |    Скачан:  0 раз

Полного источника не было: Никогда

Личеров:  1  [  0 KB/s  ]   Подробная статистика пиров
 
   
 
 
 

[Цитировать]

Лев Кулиджанов. Когда деревья были большими
Дата/Год выпуска: 2001
Страна: Россия, "Студия 217"
Жанр: Документальный, биография, кинематограф
Продолжительность: 00:44:57
Перевод: Не требуется
Русские субтитры: нет
Режиссер: Андрей А. Эшпай
Описание: Это картина-монолог, картина-исповедь. Лев Александрович Кулиджанов предстает перед нами не как большой государственный деятель, к чему привыкла общественность, а как мудрый человек, особенно обаятельный в домашней беседе, как учитель - мы увидим его вместе с учениками, и, самое главное, как выдающийся режиссер, обладающий своим собственным языком, органично вытекающим из всей его манеры существовать, из его особого ритма речи, спокойного, но внутренне насыщенного глубокой эмоциональностью, которую Кулиджанов так часто передавал актерам, даря многим из них счастливую судьбу в кино.
качество: SATRip
формат: AVI
Видео: XviD, 1800 Кбит/с, 720х448
Аудио: MP3, 2 ch, 128 Кбит/с

MediaInfo

Complete name : D:\Golubkina\Лев Кулиджанов.Когда деревья были большими.2001.SATRip.aviFormat : AVIFormat/Info : Audio Video InterleaveFile size : 623 MiBDuration : 44mn 57sOverall bit rate : 1 937 KbpsWriting application : VirtualDubMod 1.5.10.3 | www.virtualdub-fr.org || (build 2550/release)Writing library : VirtualDub build 32507/release
VideoID : 0Format : MPEG-4 VisualFormat profile : Advanced Simple@L5Format settings, BVOP : 2Format settings, QPel : NoFormat settings, GMC : No warppointsFormat settings, Matrix : Default (MPEG)Codec ID : XVIDCodec ID/Hint : XviDDuration : 44mn 57sBit rate : 1 800 KbpsWidth : 720 pixelsHeight : 448 pixelsDisplay aspect ratio : 1.607Frame rate : 25.000 fpsColor space : YUVChroma subsampling : 4:2:0Bit depth : 8 bitsScan type : ProgressiveCompression mode : LossyBits/(Pixel*Frame) : 0.223Stream size : 579 MiB (93%)Writing library : XviD 1.2.1 (UTC 2008-12-04)
AudioID : 1Format : MPEG AudioFormat version : Version 1Format profile : Layer 3Mode : Joint stereoMode extension : MS StereoCodec ID : 55Codec ID/Hint : MP3Duration : 44mn 57sBit rate mode : ConstantBit rate : 128 KbpsChannel(s) : 2 channelsSampling rate : 48.0 KHzCompression mode : LossyStream size : 41.2 MiB (7%)Alignment : Aligned on interleavesInterleave, duration : 40 ms (1.00 video frame)Interleave, preload duration : 504 msWriting library : LAME3.99rEncoding settings : -m j -V 4 -q 2 -lowpass 17 -b 128-m j -V 4 -q 2 -lowpass 17 -b 128-m j -V 4 -q 2 -lowpass 17 -b 128

Скриншоты


[teatrix.ru].t11277.torrent 
Торрент: Зарегистрирован [ 2015-12-07 13:40 ] · C4F86C0538837B98D2071AA7AB4660772DE19226

Скачать .torrent

Скачать

13 KB

Статус: проверено
Скачан: 0 раз
Размер: 623 MB
terms.php



Быстрый ответ

Имя:

      
Для отправки сообщений необходимо включить JavaScript
Показать сообщения:    

Текущее время: 08-Дек 01:21

Часовой пояс: UTC + 3


Вы можете начинать темы
Вы можете отвечать на сообщения
Вы не можете редактировать свои сообщения
Вы не можете удалять свои сообщения
Вы не можете голосовать в опросах
Вы не можете прикреплять файлы к сообщениям
Вы можете скачивать файлы