Василий Шукшин. Самородок (Ирина Голубева) [2014, Документальный, биография, литература, кинематограф, SATRip]


Статистика раздачи [Обновить пиров]
Размер:  619 MB   |    Зарегистрирован:  11 месяцев 27 дней   |    Скачан:  0 раз

Полного источника не было: Никогда

 
   
 
 
 

[Цитировать]

Василий Шукшин. Самородок
Дата/Год выпуска: 2014
Страна: Россия, ОАО "Первый канал"
Жанр: Документальный, биография, литература, кинематограф
Продолжительность: 00:49:49
Перевод: Не требуется
Русские субтитры: нет
Режиссер: Ирина Голубева
Описание: История успеха Василия Шукшина кажется невероятной. Сын репрессированного крестьянина с Алтая завоевал Москву всего за несколько лет. Актер, режиссер, писатель стал поистине народным героем, в котором каждый видел своего земляка - простого и понятного. Неизгладимое впечатление Шукшин, в неизменной гимнастерке и сапогах, производил и на женщин : о нем будут рассказывать женщины, которые его когда-то любили и которым он исковеркал жизнь. Еще одна сюжетная линия фильма - линия его смерти. Его внезапный уход из жизни вызвал волну слухов по стране: многие считали, что народного кумира убили, совсем как его героя - бывшего зэка Егора из фильма "Калина красная". О том, что на самом деле произошло в ночь смерти Шукшина в станице Клетская, во время съемок фильма "Они сражались за родину", расскажет очевидец - актер Николай Губенко. Он полностью поддерживает официальную версию смерти - сердечная недостаточность. О Василии Шукшине также вспоминают его однокурсники, друзья и односельчане.
В фильме приняли участие: Катя Шукшина - старшая дочь Шукшина, Лидия Федосеева-Шукшина - вдова Шукшина, Лидия Чащина (Александрова) - актриса, Надежда Ядыкина - троюродная сестра Шукшина, подруга Шумской, Надежда Зиновьева - племянница Шукшина, дочь его сестры Натальи, Николай Губенко - актер, друг Шукшина, Сергей Никоненко - актер, Тамара Семина - актриса, Сергей Куняев - критик, Лев Аннинский - писатель, критик, Марина Тарковская - сестра Андрея Тарковского, Александр Гордон - режиссер и другие.
качество: SATRip
формат: AVI
Видео: XviD, 1600 Кбит/с, 704x400
Аудио: MP3, 2 ch, 128 Кбит/с

MediaInfo

Complete name : D:\Golubkina\Василий Шукшин.Самородок.2014.SATRip.aviFormat : AVIFormat/Info : Audio Video InterleaveFile size : 619 MiBDuration : 49mn 49sOverall bit rate : 1 738 KbpsWriting application : VirtualDubMod 1.5.10.2 (build 2540/release)Writing library : VirtualDubMod build 2540/release
VideoID : 0Format : MPEG-4 VisualFormat profile : Advanced Simple@L5Format settings, BVOP : 2Format settings, QPel : NoFormat settings, GMC : No warppointsFormat settings, Matrix : Default (MPEG)Codec ID : XVIDCodec ID/Hint : XviDDuration : 49mn 49sBit rate : 1 600 KbpsWidth : 704 pixelsHeight : 400 pixelsDisplay aspect ratio : 16:9Frame rate : 25.000 fpsColor space : YUVChroma subsampling : 4:2:0Bit depth : 8 bitsScan type : ProgressiveCompression mode : LossyBits/(Pixel*Frame) : 0.227Stream size : 570 MiB (92%)Writing library : XviD 1.2.1 (UTC 2008-12-04)
AudioID : 1Format : MPEG AudioFormat version : Version 1Format profile : Layer 3Mode : Joint stereoMode extension : MS StereoCodec ID : 55Codec ID/Hint : MP3Duration : 49mn 49sBit rate mode : ConstantBit rate : 128 KbpsChannel(s) : 2 channelsSampling rate : 48.0 KHzCompression mode : LossyStream size : 45.6 MiB (7%)Alignment : Aligned on interleavesInterleave, duration : 40 ms (1.00 video frame)Interleave, preload duration : 504 msWriting library : LAME3.98.4

Скриншоты


[teatrix.ru].t11278.torrent 
Торрент: Зарегистрирован [ 2015-12-07 13:40 ] · 45216285929BBCA88DCE748C584F947340A04D78

Скачать .torrent

Скачать

13 KB

Статус: проверено
Скачан: 0 раз
Размер: 619 MB
terms.php



Быстрый ответ

Имя:

      
Для отправки сообщений необходимо включить JavaScript
Показать сообщения:    

Текущее время: 03-Дек 20:45

Часовой пояс: UTC + 3


Вы можете начинать темы
Вы можете отвечать на сообщения
Вы не можете редактировать свои сообщения
Вы не можете удалять свои сообщения
Вы не можете голосовать в опросах
Вы не можете прикреплять файлы к сообщениям
Вы можете скачивать файлы