Фильм памяти. Владимир Высоцкий [2011, Документальный, биография, история, авторская песня, SATRip]


Статистика раздачи [Обновить пиров]
Размер:  493 MB   |    Зарегистрирован:  1 год 1 месяц   |    Скачан:  0 раз

Полного источника не было: Никогда

 
   
 
 
 

[Цитировать]

Фильм памяти. Владимир Высоцкий
Дата/Год выпуска: 2011
Страна: Россия, Кинокомпания "Тесса Телеком", ТК "Ля минор
Жанр: Документальный, биография, история, авторская песня
Продолжительность: 00:38:59
Перевод: Не требуется
Русские субтитры: нет
Описание: Владимир Семёнович Высоцкий (25 января 1938 , Москва, РСФСР, СССР — 25 июля 1980, там же) — советский поэт и автор-исполнитель песен, актёр, автор прозаических произведений. Лауреат Государственной премии СССР (1987 — посмертно). Владимир Высоцкий сыграл десятки ролей в театре, в том числе Гамлета («Гамлет» У. Шекспира), Галилея («Жизнь Галилея» Б. Брехта), Лопахина («Вишнёвый сад» А. Чехова). Наиболее примечательными работами в кинематографе являются его роли в фильмах «Место встречи изменить нельзя», «Маленькие трагедии», «Интервенция», «Хозяин тайги», «Вертикаль», «Служили два товарища». Актёр Театра драмы и комедии на Таганке в Москве, созданного Юрием Любимовым в 1964 году.
качество: SATRip
формат: AVI
Видео: XviD, 1631 Кбит/с, 672х512
Аудио: MP3, 2 ch, 128 Кбит/с

MediaInfo

Complete name : G:\проверка\Filjm.pamjati.Vladimir.Vysockij.2011.XviD.SATRip.Jelannaja.aviFormat : AVIFormat/Info : Audio Video InterleaveFile size : 493 MiBDuration : 38mn 59sOverall bit rate : 1 769 KbpsWriting application : VirtualDubMod 1.5.10.2 (build 2540/release)Writing library : VirtualDubMod build 2540/release
VideoID : 0Format : MPEG-4 VisualFormat profile : Advanced Simple@L5Format settings, BVOP : 2Format settings, QPel : NoFormat settings, GMC : No warppointsFormat settings, Matrix : Default (H.263)Muxing mode : Packed bitstreamCodec ID : XVIDCodec ID/Hint : XviDDuration : 38mn 59sBit rate : 1 631 KbpsWidth : 672 pixelsHeight : 512 pixelsDisplay aspect ratio : 4:3Frame rate : 25.000 fpsColor space : YUVChroma subsampling : 4:2:0Bit depth : 8 bitsScan type : ProgressiveCompression mode : LossyBits/(Pixel*Frame) : 0.190Stream size : 455 MiB (92%)Writing library : XviD 64
AudioID : 1Format : MPEG AudioFormat version : Version 1Format profile : Layer 3Mode : Joint stereoMode extension : MS StereoCodec ID : 55Codec ID/Hint : MP3Duration : 38mn 59sBit rate mode : ConstantBit rate : 128 KbpsChannel(s) : 2 channelsSampling rate : 48.0 KHzCompression mode : LossyStream size : 35.7 MiB (7%)Alignment : Aligned on interleavesInterleave, duration : 40 ms (1.00 video frame)Interleave, preload duration : 504 ms

Скриншоты


[teatrix.ru].t11279.torrent 
Торрент: Зарегистрирован [ 2015-12-07 13:40 ] · 10C0808648E93E2C1937238E6292FEADECFD0930

Скачать .torrent

Скачать

10 KB

Статус: проверено
Скачан: 0 раз
Размер: 493 MB
terms.php



Быстрый ответ

Имя:

      
Для отправки сообщений необходимо включить JavaScript
Показать сообщения:    

Текущее время: 20-Янв 17:00

Часовой пояс: UTC + 3


Вы можете начинать темы
Вы можете отвечать на сообщения
Вы не можете редактировать свои сообщения
Вы не можете удалять свои сообщения
Вы не можете голосовать в опросах
Вы не можете прикреплять файлы к сообщениям
Вы можете скачивать файлы