Продюсер Джордж Мартин / Produced by George Martin (Френсис Хэнли/Francis Hanley) [2011, Документалистика, DVB]


Статистика раздачи [Обновить пиров]
Размер:  1007 MB   |    Зарегистрирован:  11 месяцев   |    Скачан:  0 раз

Полного источника не было: Никогда

 
   
 
 
 

[Цитировать]

Продюсер Джордж Мартин / Produced by George Martin
Дата/Год выпуска: 2011
Страна: Великобритания
Жанр: Документалистика
Продолжительность: 01:25:00
Перевод: Профессиональный (многоголосый закадровый)
Русские субтитры: нет
Производство: British Broadcasting Corporation (BBC), Grounded Productions, Illuminations Films
Режиссер: Френсис Хэнли/Francis Hanley
Телеканал: 1 канал
Описание: Жизнеописание самого известного музыкального продюсера Великобритании - сэра Джорджа Мартина, которого по праву можно считать пятым участником The Beatles.
Мартин принимал участие в записи почти всех альбомов "ливерпульской четверки" в качестве продюсера, музыканта или аранжировщика, однако его талант не ограничивался работой с легендарной группой. Он был и остается отличным продюсером и не собирается завершать свою музыкальную карьеру. В фильме "Продюсер Джордж Мартин" сэр Джордж рассказывает о своем детстве, о войне, о своих первых шагах в музыке… Премьера картины состоялась в 2011 году на ВВС в цикле "Arena". Данная версия, выпущенная на DVD и BluRay, дополнена новыми интервью с Sir James Paul McCartney, Richard Starkey, MICHAEL PALIN, Geoffrey Arnold Beck, Rolf Harris и многими другими удивительными людьми.
Доп. информация:

скрытый текст

Легендарный продюсер Джордж Мартин, часто называемый пятым битлом, считает развал EMI "худшим событием, с которым когда-либо сталкивалась музыка". Он признался, что огорчен предполагаемым "распилом" студии, обладающей правами на ряд записей Битлз.
Напомним, что в прошлом году американский банк Citigroup, спасший EMI, согласился на противоречивую сделку с компаниями Universal и Sony, касающуюся музыкального и издательского подразделений студии соответственно. В настоящее время власти Европейского Союза изучают план Universal, который может уменьшить конкуренцию в данной отрасли бизнеса. А соглашение с Sony было одобрено после того, как компания согласилась продать ключевые части каталога EMI.
По словам Мартина, обе сделки дадут Sony и Universal "виртуальную монополию". "Мне грустно, что великие компании поглощаются гигантами. Доминирование в звукозаписывающей и музыкальной индустрии Sony и Universal может закончиться лишь их виртуальной монополией на европейском рынке. Разве этого хотят люди?" - сетует продюсер.
"Сэр Джордж не говорил с представителями Universal Music по этому поводу. Если бы он это сделал, то мы - устоявшаяся музыкальная компания, которая вкладывает десятки миллионов в прекрасные британские таланты - были бы рады объяснить наши планы по EMI", - говорится в ответном заявлении Universal.
Тем временем, стало известно, что барабанщик группы Garbage и продюсер альбома группы Nirvana "Nevermind" Бутч Виг назвал Мартина своим любимым музыкальным продюсером. По мнению рокера, сэр Джордж "сломал множество границ".
Сэмпл: http://multi-up.com/988714
качество: DVB
формат: TS/M2TS
Видео: AVC, аноморф. 720х576, 16:9, 1401 Кбит/сек, 25 fps
Аудио: MPEG Audio, 160 Кбит/сек, 44 КГц, 2 канала

MediaInfo

ОбщееИдентификатор : 16 (0x10)Полное имя : Produced by George Martin.tsФормат : MPEG-TSРазмер файла : 1007 МбайтПродолжительность : 1 ч. 25 м.Режим общего битрейта : ПеременныйОбщий поток : 1644 Кбит/сек
ВидеоИдентификатор : 1414 (0x586)Идентификатор меню : 414 (0x19E)Формат : AVCФормат/Информация : Advanced Video CodecПрофиль формата : Main@L3.0Параметр CABAC формата : ДаПараметр ReFrames формата : 3 кадраПараметр GOP формата : M=4, N=28Идентификатор кодека : 27Продолжительность : 1 ч. 25 м.Битрейт : 1401 Кбит/секШирина : 720 пикселейВысота : 576 пикселейСоотношение сторон : 16:9Частота кадров : 25,000 кадров/секСтандарт вещания : PALЦветовое пространство : YUVСубдискретизация насыщенности : 4:2:0Битовая глубина : 8 битТип развёртки : ЧересстрочнаяПорядок развёртки : Верхнее поле первоеБит/(Пиксели*Кадры) : 0.135Размер потока : 859 Мбайт (85%)Основные цвета : BT.601 PALХарактеристики трансфера : BT.470 System B, BT.470 System GКоэффициенты матрицы : BT.601
АудиоИдентификатор : 2414 (0x96E)Идентификатор меню : 414 (0x19E)Формат : MPEG AudioВерсия формата : Version 1Профиль формата : Layer 2Идентификатор кодека : 4Продолжительность : 1 ч. 25 м.Вид битрейта : ПостоянныйБитрейт : 160 Кбит/секКаналы : 2 каналаЧастота : 48,0 КГцМетод сжатия : С потерямиЗадержка видео : 67 мс.Размер потока : 98,1 Мбайт (10%)Язык : stdЯзык, дополнительно : Clean effects

Скриншоты

[teatrix.ru].t11280.torrent 
Торрент: Зарегистрирован [ 2015-12-07 13:40 ] · 1E81AE4E871E7FB3753A2F095C537DA0A1904400

Скачать .torrent

Скачать

20 KB

Статус: проверено
Скачан: 0 раз
Размер: 1007 MB
terms.php



Быстрый ответ

Имя:

      
Для отправки сообщений необходимо включить JavaScript
Показать сообщения:    

Текущее время: 05-Дек 11:28

Часовой пояс: UTC + 3


Вы можете начинать темы
Вы можете отвечать на сообщения
Вы не можете редактировать свои сообщения
Вы не можете удалять свои сообщения
Вы не можете голосовать в опросах
Вы не можете прикреплять файлы к сообщениям
Вы можете скачивать файлы