Леонид Куравлев - На мне узоров нету! (Максим Володин) [2013, Документальный, кинематограф, театр, биография, SATRip]


Статистика раздачи [Обновить пиров]
Размер:  585 MB   |    Зарегистрирован:  1 год   |    Скачан:  0 раз
Сидов:  1  [  0 KB/s  ]   Подробная статистика пиров
 
   
 
 
 

[Цитировать]

Леонид Куравлев - На мне узоров нету!
Дата/Год выпуска: 2013
Страна: Россия, ООО "Студия Ивана Усачёва"
Жанр: Документальный, кинематограф, театр, биография
Продолжительность: 00:38:14
Перевод: Не требуется
Русские субтитры: нет
Режиссер: Максим Володин
Описание: "Свой парень!" - так говорят о Леониде Куравлёве зрители и партнёры. И только самые близкие люди знают, какой актёр на самом деле. Ревнивый, ранимый, с непростым характером. Впрочем, человеку, за плечами которого больше 200 ролей в кино, можно иногда покапризничать. А ещё, мало кто догадывается, что за маской простака, добряка и комика скрывается глубокий философ. Светским тусовкам и творческим вечерам актёр предпочитает одиночество и беседы в кругу друзей. Какой он - самый народный артист нашего кино? Кто помог обычному парню из рабочей семьи пробиться на экраны? Почему последние годы он отказывается от ролей? А также, как актёр переживает главную трагедию своей жизни - смерть жены Нины Васильевны, с которой он прожил более 50 лет?
качество: SATRip
формат: AVI
Видео: XviD, 2000 Кбит/с, 704x528
Аудио: MP3, 2 ch, 128 Кбит/с

MediaInfo

Complete name : D:\Golubkina\Леонид Куравлев.На мне узоров нету.2013.SATRip.aviFormat : AVIFormat/Info : Audio Video InterleaveFile size : 585 MiBDuration : 38mn 14sOverall bit rate : 2 138 KbpsWriting application : VirtualDubMod 1.5.10.2 (build 2540/release)Writing library : Boilsoft AVI tool build 30012/release
VideoID : 0Format : MPEG-4 VisualFormat profile : Advanced Simple@L5Format settings, BVOP : 2Format settings, QPel : NoFormat settings, GMC : No warppointsFormat settings, Matrix : Default (MPEG)Codec ID : XVIDCodec ID/Hint : XviDDuration : 38mn 14sBit rate : 2 000 KbpsWidth : 704 pixelsHeight : 528 pixelsDisplay aspect ratio : 4:3Frame rate : 25.000 fpsColor space : YUVChroma subsampling : 4:2:0Bit depth : 8 bitsScan type : ProgressiveCompression mode : LossyBits/(Pixel*Frame) : 0.215Stream size : 547 MiB (94%)Writing library : XviD 1.2.1 (UTC 2008-12-04)
AudioID : 1Format : MPEG AudioFormat version : Version 1Format profile : Layer 3Mode : Joint stereoMode extension : MS StereoCodec ID : 55Codec ID/Hint : MP3Duration : 38mn 14sBit rate mode : ConstantBit rate : 128 KbpsChannel(s) : 2 channelsSampling rate : 48.0 KHzCompression mode : LossyStream size : 35.0 MiB (6%)Alignment : Aligned on interleavesInterleave, duration : 40 ms (1.00 video frame)Interleave, preload duration : 504 ms

Скриншоты



[teatrix.ru].t11281.torrent 
Торрент: Зарегистрирован [ 2015-12-07 13:40 ] · 5A5E2A45F3214FAA8255CEC2402519380835D851

Скачать .torrent

Скачать

12 KB

Статус: проверено
Скачан: 0 раз
Размер: 585 MB
terms.php



Быстрый ответ

Имя:

      
Для отправки сообщений необходимо включить JavaScript
Показать сообщения:    

Текущее время: 09-Дек 20:28

Часовой пояс: UTC + 3


Вы можете начинать темы
Вы можете отвечать на сообщения
Вы не можете редактировать свои сообщения
Вы не можете удалять свои сообщения
Вы не можете голосовать в опросах
Вы не можете прикреплять файлы к сообщениям
Вы можете скачивать файлы