Элита страны Советов. Олег Анофриев (Дмитрий Богородский) [2007, Документальный, биография, вокал, искусство, SATRip]


Статистика раздачи [Обновить пиров]
Размер:  722 MB   |    Зарегистрирован:  1 год   |    Скачан:  0 раз

Полного источника не было: Никогда

Личеров:  1  [  0 KB/s  ]   Подробная статистика пиров
 
   
 
 
 

[Цитировать]

Элита страны Советов. Олег Анофриев
Дата/Год выпуска: 2007
Страна: Россия, ТК "Кто есть кто"
Жанр: Документальный, биография, вокал, искусство
Продолжительность: 00:52:11
Перевод: Не требуется
Русские субтитры: нет
Режиссер: Дмитрий Богородский
Описание: Элита страны Советов - цикл передач посвящен легендарным личностям Советского Союза и России. В этой передаче речь пойдет об Олеге Андреевиче Анофриеве - советском и российском актере театра и кино, народном артисте РФ, режиссере, певце, авторе ряда песен.
качество: SATRip
формат: AVI
Видео: XviD, 1797 Кбит/с, 688х528
Аудио: MP3, 2 ch, 128 Кбит/с

MediaInfo

Complete name : D:\Golubkina\Элита страны Советов.Олег Анофриев.2007.SATRip.aviFormat : AVIFormat/Info : Audio Video InterleaveFile size : 722 MiBDuration : 52mn 11sOverall bit rate : 1 935 KbpsWriting application : VirtualDubMod 1.5.10.3 | www.virtualdub-fr.org || (build 2550/release)Writing library : VirtualDubMod build 2550/release
VideoID : 0Format : MPEG-4 VisualFormat profile : Advanced Simple@L5Format settings, BVOP : 2Format settings, QPel : NoFormat settings, GMC : No warppointsFormat settings, Matrix : Default (MPEG)Codec ID : XVIDCodec ID/Hint : XviDDuration : 52mn 11sBit rate : 1 797 KbpsWidth : 688 pixelsHeight : 528 pixelsDisplay aspect ratio : 4:3Frame rate : 25.000 fpsColor space : YUVChroma subsampling : 4:2:0Bit depth : 8 bitsScan type : ProgressiveCompression mode : LossyBits/(Pixel*Frame) : 0.198Stream size : 671 MiB (93%)Writing library : XviD 1.2.1 (UTC 2008-12-04)
AudioID : 1Format : MPEG AudioFormat version : Version 1Format profile : Layer 3Codec ID : 55Codec ID/Hint : MP3Duration : 52mn 11sBit rate mode : ConstantBit rate : 128 KbpsChannel(s) : 2 channelsSampling rate : 48.0 KHzCompression mode : LossyStream size : 47.8 MiB (7%)Alignment : Aligned on interleavesInterleave, duration : 40 ms (1.00 video frame)Interleave, preload duration : 504 msWriting library : LAME3.99rEncoding settings : -m s -V 4 -q 2 -lowpass 17 -b 128

Скриншоты


[teatrix.ru].t11282.torrent 
Торрент: Зарегистрирован [ 2015-12-07 13:40 ] · 504E584BEEA798F8DE1C71566773D591DDF568AA

Скачать .torrent

Скачать

15 KB

Статус: проверено
Скачан: 0 раз
Размер: 722 MB
terms.php



Быстрый ответ

Имя:

      
Для отправки сообщений необходимо включить JavaScript
Показать сообщения:    

Текущее время: 07-Дек 13:40

Часовой пояс: UTC + 3


Вы можете начинать темы
Вы можете отвечать на сообщения
Вы не можете редактировать свои сообщения
Вы не можете удалять свои сообщения
Вы не можете голосовать в опросах
Вы не можете прикреплять файлы к сообщениям
Вы можете скачивать файлы