Документальный фильм: «Трудно быть Джуной» (Эфир от 22.07.2014) [2014 г., Док. фильм, DVB]


Статистика раздачи [Обновить пиров]
Размер:  949 MB   |    Зарегистрирован:  11 месяцев 26 дней   |    Скачан:  0 раз

Полного источника не было: Никогда

 
   
 
 
 

[Цитировать]

Документальный фильм: «Трудно быть Джуной» (Эфир от 22.07.2014)
Дата/Год выпуска: 22.07.2014
Страна: Россия
Жанр: Док. фильм
Продолжительность: 00:41:03
Перевод: Не требуется
Русские субтитры: нет
Телеканал: Россия, Твц
Описание: Сегодня, 22 июля, празднует свой 65-й день рождения одна из самых загадочных женщин современности Джуна Давиташвили. В честь этого события на канале ТВЦ выйдет документальный фильм «Трудно быть Джуной». Авторы картины попытались приподнять завесу таинственности, окружающую героиню.
Главная загадка Джуны — это ее дар: способность исцелять людей руками и даже продлевать жизнь. Сегодня она предпочитает вести жизнь затворницы, не читает статьи о себе и старается избегать встреч с прессой. Поэтому появление этого фильма — тоже в каком-то смысле чудо. Ведь если Джуне что-то не понравится, она способна выключить камеру одним взглядом!
Из документального фильма «Трудно быть Джуной» зрители узнают, что в переводе с древнеассирийского означают настоящее имя и девичья фамилия героини: Евгения Бит-Сардис. И о том, какой она была в детстве. Отец разглядел в девочке дар, когда той было всего пять лет. С тех пор Джуна смогла помочь многим людям, среди которых многие советские и российские знаменитости.
В фильме на ТВЦ Джуна поделится со зрителями в том числе и подробностями своей личной жизни. Например, она поведает, как познакомилась со своим первым мужем и почему они все-таки развелись.
А еще в картине поднимут многие другие интересные вопросы. Чем же сегодня живет эта сильная женщина? Что стояло за её браком с Игорем Матвиенко? Чем она помогла Игорю Талькову? За какой поступок по отношению к Джуне стало стыдно Станиславу Садальскому? Из-за чего в ближний круг героини не были допущены Роберт де Ниро, принц Чарльз и десятки других блестящих, богатых и знаменитых мужчин?
В программе приняли участие: Евгения Давиташвили (Джуна), Иосиф Кобзон, Геннадий Хазанов, Владислав Третьяк, Владимир Жириновский, Галина Данелия, Станислав Садальский, Бисер Киров, Лолита Милявская, Сосо Павлиашвили, Александр Буйнов, Александр Панкратов-Чёрный и др.
Смотреть онлайн: Документальный фильм: «Трудно быть Джуной» (Эфир от 22.07.2014
Источник: Собственный рип.
Доп. информация: Рип чистый. Без посторонних надписей. Выкладывается как есть.

Качество: DVB
Контейнер: MPEG-PS
Видео кодек: MPEG2
Аудио кодек: MPEG1
Видео: MPEG2 720x576 (4:3) 25.00fps 2 975 Kbps, 0.287 bit/pixel
Аудио: MPEG1 48000Hz stereo 192 Кбит/сек

Скриншоты

Скринлист

Отчёт MediaInfo / BDInfo

Общее
Полное имя : F:\Раздачи\Документальный фильм «Трудно быть Джуной» (2014, DVB, Док. фильм, 22.07.2014).mpg
Формат : MPEG-PS
Размер файла : 949 Мбайт
Продолжительность : 41 м.
Режим общего битрейта : Переменный
Общий поток : 3231 Кбит/сек
Видео
Идентификатор : 224 (0xE0)
Формат : MPEG Video
Версия формата : Version 2
Профиль формата : Main@Main
Параметр BVOP формата : Нет
Параметр матрицы формата : По умолчанию
Параметр GOP формата : Variable
Продолжительность : 41 м.
Вид битрейта : Переменный
Битрейт : 2975 Кбит/сек
Максимальный битрейт : 9000 Кбит/сек
Ширина : 720 пикселей
Высота : 576 пикселей
Соотношение сторон : 4:3
Частота кадров : 25,000 кадров/сек
Стандарт вещания : PAL
Цветовое пространство : YUV
Субдискретизация насыщенности : 4:2:0
Битовая глубина : 8 бит
Тип развёртки : Прогрессивная
Метод сжатия : С потерями
Бит/(Пиксели*Кадры) : 0.287
Временной код первого кадра : 00:00:00:00
Оригинал временного кода : Group of pictures header
Размер потока : 873 Мбайт (92%)
Аудио
Идентификатор : 192 (0xC0)
Формат : MPEG Audio
Версия формата : Version 1
Профиль формата : Layer 2
Продолжительность : 41 м.
Вид битрейта : Постоянный
Битрейт : 192 Кбит/сек
Каналы : 2 канала
Частота : 48,0 КГц
Метод сжатия : С потерями
Размер потока : 56,4 Мбайт (6%)

[teatrix.ru].t11283.torrent 
Торрент: Зарегистрирован [ 2015-12-07 13:40 ] · 35EC1CFCFEC5DEE6FF566BBFE711B50B2ADD97E1

Скачать .torrent

Скачать

19 KB

Статус: проверено
Скачан: 0 раз
Размер: 949 MB
terms.php



Быстрый ответ

Имя:

      
Для отправки сообщений необходимо включить JavaScript
Показать сообщения:    

Текущее время: 03-Дек 07:37

Часовой пояс: UTC + 3


Вы можете начинать темы
Вы можете отвечать на сообщения
Вы не можете редактировать свои сообщения
Вы не можете удалять свои сообщения
Вы не можете голосовать в опросах
Вы не можете прикреплять файлы к сообщениям
Вы можете скачивать файлы