Сергий Радонежский. Путь подвижника (Константин Голенчик) [2014, Биография, культура, история, SATRip]


Статистика раздачи [Обновить пиров]
Размер:  301 MB   |    Зарегистрирован:  1 год   |    Скачан:  0 раз

Полного источника не было: Никогда

 
   
 
 
 

[Цитировать]

Сергий Радонежский. Путь подвижника
Год выпуска: 2014
Страна: Россия
Жанр: Биография, культура, история
Продолжительность: 00:25:45
Перевод: Не требуется
Режиссер: Константин Голенчик
Телеканал: ГТРК "Культура"
Описание: Путешествие по местам, связанным с биографией преподобного Сергия Радонежского: города, сыгравшие заметную роль в судьбе святого, и монастыри, которые он основал. О главных событиях жизни и духовном пути Сергия Радонежского. О роли преподобного в истории.
качество: SATRip
формат: AVI
Видео: DivX, MPEG-4 Visual, 640 x 480 (1.333), 1495 Kbps, 25.000 fps
Аудио: MP3, MPEG Audio, 2 ch, 128 Kbps, 48.0 KHz

MediaInfo

Format : AVIFormat/Info : Audio Video InterleaveFile size : 301 MiBDuration : 25mn 44sOverall bit rate : 1 633 KbpsWriting application : VirtualDubMod 1.5.10.2 (build 2540/release)Writing library : VirtualDubMod build 2540/release
VideoID : 0Format : MPEG-4 VisualFormat profile : Simple@L1Format settings, BVOP : NoFormat settings, QPel : NoFormat settings, GMC : No warppointsFormat settings, Matrix : Default (H.263)Codec ID : DIVXCodec ID/Info : Project MayoCodec ID/Hint : DivX 4Duration : 25mn 44sBit rate : 1 495 KbpsWidth : 640 pixelsHeight : 480 pixelsDisplay aspect ratio : 4:3Frame rate : 25.000 fpsColor space : YUVChroma subsampling : 4:2:0Bit depth : 8 bitsScan type : ProgressiveCompression mode : LossyBits/(Pixel*Frame) : 0.195Stream size : 275 MiB (92%)Writing library : Lavc52.61.0
AudioID : 1Format : MPEG AudioFormat version : Version 1Format profile : Layer 3Codec ID : 55Codec ID/Hint : MP3Duration : 25mn 44sBit rate mode : ConstantBit rate : 128 KbpsChannel(s) : 2 channelsSampling rate : 48.0 KHzCompression mode : LossyStream size : 23.6 MiB (8%)Alignment : Aligned on interleavesInterleave, duration : 40 ms (1.00 video frame)Interleave, preload duration : 504 msWriting library : LAME3.98rEncoding settings : -m s -V 4 -q 2 -lowpass 17 -b 128

Скриншоты

[teatrix.ru].t11284.torrent 
Торрент: Зарегистрирован [ 2015-12-07 13:40 ] · AD61CCD11E9EA8A2AA1750685D6AF558D57122AF

Скачать .torrent

Скачать

12 KB

Статус: проверено
Скачан: 0 раз
Размер: 301 MB
terms.php



Быстрый ответ

Имя:

      
Для отправки сообщений необходимо включить JavaScript
Показать сообщения:    

Текущее время: 11-Дек 16:54

Часовой пояс: UTC + 3


Вы можете начинать темы
Вы можете отвечать на сообщения
Вы не можете редактировать свои сообщения
Вы не можете удалять свои сообщения
Вы не можете голосовать в опросах
Вы не можете прикреплять файлы к сообщениям
Вы можете скачивать файлы