Последний романтик контрразведки (Андрей Гречиха) [21/07/2014, Документалистика, DVB]


Статистика раздачи [Обновить пиров]
Размер:  432 MB   |    Зарегистрирован:  11 месяцев 26 дней   |    Скачан:  0 раз

Полного источника не было: Никогда

 
   
 
 
 

[Цитировать]

Последний романтик контрразведки
Дата/Год выпуска: 21/07/2014
Страна: Россия
Жанр: Документалистика
Продолжительность: 00:44:00
Перевод: Не требуется
Русские субтитры: нет
Режиссер: Андрей Гречиха
Телеканал: Россия 1
Описание: Сегодня, 21 июля, прототипу главного героя знаменитого фильма "ТАСС уполномочен заявить..." Вячеславу Ивановичу Кеворкову исполняется 90 лет. В окрестностях Бонна уже много лет живет отставной генерал-майор КГБ Вячеслав Кеворков – человек, заслуживший репутацию одной из самых таинственных личностей XX века. Когда КГБ возглавил Юрий Андропов, он стал у него послом по особым поручениям и тайным советником.
Как удалось генералу Кеворкову найти и разоблачить шпиона в МИДе, как рождался любимый советский фильм "ТАСС уполномочен заявить…"? Какое отношение наш герой имел к сцене встречи Штирлица с женой в фильме "Семнадцать мгновений весны"? Об этом мы узнаем в документальном фильме от самого Вячеслава Ивановича.
Вячеслав Кеворков как-то пошутил в ответ на расспросы о работе в контрразведке: "За каждым из нас всегда тянется хвост, даже если мы его не замечаем. По крайней мере, я нервничаю, не чувствуя, что кто-то идет по моим следам".
Доп. информация: Автор сценария: Людмила Романенко
Продюсер: Ирина Щербина
Телекомпания "НП ФОРМАТ"
Сэмпл: http://multi-up.com/987919
качество: DVB
формат: TS/M2TS
Видео: AVC, аноморф. 720х576, 4:3, 1119 Кбит/сек, 25 fps
Аудио: MPEG Audio, 160 Кбит/сек, 44 КГц, 2 канала

MediaInfo

ОбщееИдентификатор : 16 (0x10)Полное имя : Last Romantic counterintelligence_SD.tsФормат : MPEG-TSРазмер файла : 432 МбайтПродолжительность : 44 м.Режим общего битрейта : ПеременныйОбщий поток : 1348 Кбит/сек
ВидеоИдентификатор : 1403 (0x57B)Идентификатор меню : 403 (0x193)Формат : AVCФормат/Информация : Advanced Video CodecПрофиль формата : Main@L3.0Параметр CABAC формата : ДаПараметр ReFrames формата : 3 кадраИдентификатор кодека : 27Продолжительность : 44 м.Битрейт : 1119 Кбит/секШирина : 720 пикселейВысота : 576 пикселейСоотношение сторон : 4:3Частота кадров : 25,000 кадров/секСтандарт вещания : PALЦветовое пространство : YUVСубдискретизация насыщенности : 4:2:0Битовая глубина : 8 битТип развёртки : ЧересстрочнаяПорядок развёртки : Верхнее поле первоеБит/(Пиксели*Кадры) : 0.108Размер потока : 360 Мбайт (83%)Основные цвета : BT.601 PALХарактеристики трансфера : BT.470 System B, BT.470 System GКоэффициенты матрицы : BT.601
АудиоИдентификатор : 2403 (0x963)Идентификатор меню : 403 (0x193)Формат : MPEG AudioВерсия формата : Version 1Профиль формата : Layer 2Идентификатор кодека : 4Продолжительность : 44 м.Вид битрейта : ПостоянныйБитрейт : 160 Кбит/секКаналы : 2 каналаЧастота : 48,0 КГцМетод сжатия : С потерямиЗадержка видео : 39 мс.Размер потока : 51,5 Мбайт (12%)Язык : stdЯзык, дополнительно : Clean effects

Скриншоты

[teatrix.ru].t11285.torrent 
Торрент: Зарегистрирован [ 2015-12-07 13:40 ] · 4C4D74AF59AB43AF377CD0D30128573A501A436F

Скачать .torrent

Скачать

17 KB

Статус: проверено
Скачан: 0 раз
Размер: 432 MB
terms.php



Быстрый ответ

Имя:

      
Для отправки сообщений необходимо включить JavaScript
Показать сообщения:    

Текущее время: 02-Дек 23:07

Часовой пояс: UTC + 3


Вы можете начинать темы
Вы можете отвечать на сообщения
Вы не можете редактировать свои сообщения
Вы не можете удалять свои сообщения
Вы не можете голосовать в опросах
Вы не можете прикреплять файлы к сообщениям
Вы можете скачивать файлы