Сергий Радонежский. Земное и небесное (Александр Евсюков) [2014, Биография, история, HDTVRip]


Статистика раздачи [Обновить пиров]
Размер:  502 MB   |    Зарегистрирован:  11 месяцев   |    Скачан:  0 раз

Полного источника не было: Никогда

 
   
 
 
 

[Цитировать]

Сергий Радонежский. Земное и небесное
Год выпуска: 2014
Страна: Россия
Жанр: Биография, история
Продолжительность: 00:43:57
Перевод: Не требуется
Режиссер: Александр Евсюков
Телеканал: Россия 1HD
Описание: Сергий Радонежский - заступник земли русской, великий русский святой. Его иконами веками благословляют воинов перед сражениями. Именно у него ищут помощи и исцеления миллионы страждущих. Почему больше шестисот лет одно только имя этого кроткого монаха вызывает в сердце любого православного теплоту и священный трепет? Как ему удалось избавить нашу землю от монгольского ига и объединить Русь? В этом фильме авторы попробовали разгадать секрет преподобного Сергия, ставшего навсегда духовным и нравственным ориентиром для своей страны и своего народа.
Доп. информация: Релиз подготовлен релиз группой: GeneralFilm. Rip by vsobbol
Исходник: semenonn
качество: HDTVRip
формат: AVI
Видео: XviD, MPEG-4 Visual, 720 x 400 (1.800), 1395 Kbps, 25.000 fps
Аудио: AC3, 2 ch, 192 Kbps, 48.0 KHz

MediaInfo

Format : AVIFormat/Info : Audio Video InterleaveFile size : 502 MiBDuration : 43mn 57sOverall bit rate : 1 597 KbpsWriting application : VirtualDubMod 1.5.10.3 | www.virtualdub-fr.org || (build 2550/release)Writing library : VirtualDubMod build 2550/release
VideoID : 0Format : MPEG-4 VisualFormat profile : Advanced Simple@L5Format settings, BVOP : 1Format settings, QPel : NoFormat settings, GMC : No warppointsFormat settings, Matrix : Default (H.263)Codec ID : XVIDCodec ID/Hint : XviDDuration : 43mn 57sBit rate : 1 395 KbpsWidth : 720 pixelsHeight : 400 pixelsDisplay aspect ratio : 16:9Frame rate : 25.000 fpsColor space : YUVChroma subsampling : 4:2:0Bit depth : 8 bitsScan type : ProgressiveCompression mode : LossyBits/(Pixel*Frame) : 0.194Stream size : 439 MiB (87%)Writing library : XviD 73
AudioID : 1Format : AC-3Format/Info : Audio Coding 3Mode extension : CM (complete main)Format settings, Endianness : BigCodec ID : 2000Duration : 43mn 57sBit rate mode : ConstantBit rate : 192 KbpsChannel(s) : 2 channelsChannel positions : Front: L RSampling rate : 48.0 KHzBit depth : 16 bitsCompression mode : LossyStream size : 60.4 MiB (12%)Alignment : Split accross interleavesInterleave, duration : 40 ms (1.00 video frame)Interleave, preload duration : 500 ms

Скриншоты

Мои раздачи фильмов о Сергие Радонежском

Сергий Радонежский. Заступник Руси -
http://teatrix.ru/viewtopic.php?t=11289
Сергий Радонежский. Путь подвижника -
http://teatrix.ru/viewtopic.php?t=11284
Не забывай говорить "Спасибо"
Пожалуйста не уходите с раздачи!
[teatrix.ru].t11287.torrent 
Торрент: Зарегистрирован [ 2015-12-07 13:40 ] · AB544BCB3E0B33EA509FD9E7ADC4380E2B6761CC

Скачать .torrent

Скачать

20 KB

Статус: проверено
Скачан: 0 раз
Размер: 502 MB
terms.php



Быстрый ответ

Имя:

      
Для отправки сообщений необходимо включить JavaScript
Показать сообщения:    

Текущее время: 07-Дек 11:37

Часовой пояс: UTC + 3


Вы можете начинать темы
Вы можете отвечать на сообщения
Вы не можете редактировать свои сообщения
Вы не можете удалять свои сообщения
Вы не можете голосовать в опросах
Вы не можете прикреплять файлы к сообщениям
Вы можете скачивать файлы