Сергий Радонежский. Земное и небесное (Александр Евсюков) [17/07/2014, Документалистика, DVB]


Статистика раздачи [Обновить пиров]
Размер:  355 MB   |    Зарегистрирован:  11 месяцев   |    Скачан:  0 раз

Полного источника не было: Никогда

 
   
 
 
 

[Цитировать]

Сергий Радонежский. Земное и небесное
Дата/Год выпуска: 17/07/2014
Страна: Россия
Жанр: Документалистика
Продолжительность: 00:44:00
Перевод: Не требуется
Русские субтитры: нет
Режиссер: Александр Евсюков
Телеканал: Россия
Описание: Сергий Радонежский - заступник земли русской, великий русский святой. Его иконами веками благословляют воинов перед сражениями. Именно у него ищут помощи и исцеления миллионы страждущих.
Почему больше шестисот лет одно только имя этого кроткого монаха вызывает в сердце любого православного теплоту и священный трепет? Как ему удалось избавить нашу землю от монгольского ига и объединить Русь? В этом фильме авторы попробовали разгадать секрет преподобного Сергия, ставшего навсегда духовным и нравственным ориентиром для своей страны и своего народа.
Сэмпл: http://multi-up.com/987088
качество: DVB
формат: TS/M2TS
Видео: AVC, аноморф. 720х576, 4:3, 915 Кбит/сек, 25 fps
Аудио: MPEG Audio, 160 Кбит/сек, 48 КГц, 2 канала

MediaInfo

ОбщееИдентификатор : 16 (0x10)Полное имя : Sergius of Radonezh. Earthly and heavenly_SD.tsФормат : MPEG-TSРазмер файла : 355 МбайтПродолжительность : 43 м.Режим общего битрейта : ПеременныйОбщий поток : 1132 Кбит/сек
ВидеоИдентификатор : 1403 (0x57B)Идентификатор меню : 403 (0x193)Формат : AVCФормат/Информация : Advanced Video CodecПрофиль формата : Main@L3.0Параметр CABAC формата : ДаПараметр ReFrames формата : 3 кадраИдентификатор кодека : 27Продолжительность : 43 м.Битрейт : 915 Кбит/секШирина : 720 пикселейВысота : 576 пикселейСоотношение сторон : 4:3Частота кадров : 25,000 кадров/секСтандарт вещания : PALЦветовое пространство : YUVСубдискретизация насыщенности : 4:2:0Битовая глубина : 8 битТип развёртки : ЧересстрочнаяПорядок развёртки : Верхнее поле первоеБит/(Пиксели*Кадры) : 0.088Размер потока : 287 Мбайт (81%)Основные цвета : BT.601 PALХарактеристики трансфера : BT.470 System B, BT.470 System GКоэффициенты матрицы : BT.601
АудиоИдентификатор : 2403 (0x963)Идентификатор меню : 403 (0x193)Формат : MPEG AudioВерсия формата : Version 1Профиль формата : Layer 2Идентификатор кодека : 4Продолжительность : 43 м.Вид битрейта : ПостоянныйБитрейт : 160 Кбит/секКаналы : 2 каналаЧастота : 48,0 КГцМетод сжатия : С потерямиЗадержка видео : 103 мс.Размер потока : 50,2 Мбайт (14%)Язык : stdЯзык, дополнительно : Clean effects

Скриншоты

[teatrix.ru].t11288.torrent 
Торрент: Зарегистрирован [ 2015-12-07 13:40 ] · 5C00ABE5528700D1669E173C895C0E3737C91CA1

Скачать .torrent

Скачать

14 KB

Статус: проверено
Скачан: 0 раз
Размер: 355 MB
terms.php



Быстрый ответ

Имя:

      
Для отправки сообщений необходимо включить JavaScript
Показать сообщения:    

Текущее время: 06-Дек 11:09

Часовой пояс: UTC + 3


Вы можете начинать темы
Вы можете отвечать на сообщения
Вы не можете редактировать свои сообщения
Вы не можете удалять свои сообщения
Вы не можете голосовать в опросах
Вы не можете прикреплять файлы к сообщениям
Вы можете скачивать файлы