Сергий Радонежский. Заступник Руси (Ольга Кушаковская) [2014, Биография, история, SATRip]


Статистика раздачи [Обновить пиров]
Размер:  609 MB   |    Зарегистрирован:  11 месяцев 27 дней   |    Скачан:  0 раз

Полного источника не было: Никогда

 
   
 
 
 

[Цитировать]

Сергий Радонежский. Заступник Руси
Год выпуска: 2014
Страна: Россия
Жанр: Биография, история
Продолжительность: 00:52:00
Перевод: Не требуется
Режиссер: Ольга Кушаковская
Телеканал: Первый канал
Описание: И как смог выжить – один, среди лютых морозов? Все эти вопросы отпадают сами собой, когда мы называем его имя – Сергий Радонежский. В нашем фильме мы расскажем, как простой отшельник стал одной из центральных фигур русской истории.
качество: SATRip
формат: AVI
Видео: XviD, MPEG-4 Visual, 720 x 400 (1.800), 1499 Kbps, 25.000 fps
Аудио: MP3, MPEG Audio, 2 ch, 128 Kbps, 48.0 KHz

MediaInfo

Format : AVIFormat/Info : Audio Video InterleaveFile size : 609 MiBDuration : 52mn 0sOverall bit rate : 1 637 KbpsWriting application : VirtualDubMod 1.5.10.3 | www.virtualdub-fr.org || (build 2550/release)Writing library : VirtualDubMod build 2550/release
VideoID : 0Format : MPEG-4 VisualFormat profile : Advanced Simple@L5Format settings, BVOP : 2Format settings, QPel : NoFormat settings, GMC : No warppointsFormat settings, Matrix : Default (H.263)Codec ID : XVIDCodec ID/Hint : XviDDuration : 52mn 0sBit rate : 1 499 KbpsWidth : 720 pixelsHeight : 400 pixelsDisplay aspect ratio : 16:9Frame rate : 25.000 fpsColor space : YUVChroma subsampling : 4:2:0Bit depth : 8 bitsScan type : ProgressiveCompression mode : LossyBits/(Pixel*Frame) : 0.208Stream size : 558 MiB (92%)Writing library : XviD 1.2.1 (UTC 2008-12-04)
AudioID : 1Format : MPEG AudioFormat version : Version 1Format profile : Layer 3Mode : Joint stereoMode extension : MS StereoCodec ID : 55Codec ID/Hint : MP3Duration : 52mn 0sBit rate mode : ConstantBit rate : 128 KbpsChannel(s) : 2 channelsSampling rate : 48.0 KHzCompression mode : LossyStream size : 47.6 MiB (8%)Alignment : Aligned on interleavesInterleave, duration : 40 ms (1.00 video frame)Interleave, preload duration : 504 msWriting library : LAME3.99rEncoding settings : -m j -V 4 -q 2 -lowpass 17 -b 128

Скриншоты

раздачи фильмов о Сергие Радонежском

Сергий Радонежский. Путь подвижника -
http://teatrix.ru/viewtopic.php?t=11284
Сергий Радонежский. Земное и небесное -
http://teatrix.ru/viewtopic.php?t=11287
Не забывай говорить "Спасибо"
Пожалуйста не уходите с раздачи!
[teatrix.ru].t11289.torrent 
Торрент: Зарегистрирован [ 2015-12-07 13:40 ] · 44C728E339BBB1E42BAF1A5791E850AA30155BBE

Скачать .torrent

Скачать

12 KB

Статус: проверено
Скачан: 0 раз
Размер: 609 MB
terms.php



Быстрый ответ

Имя:

      
Для отправки сообщений необходимо включить JavaScript
Показать сообщения:    

Текущее время: 04-Дек 09:08

Часовой пояс: UTC + 3


Вы можете начинать темы
Вы можете отвечать на сообщения
Вы не можете редактировать свои сообщения
Вы не можете удалять свои сообщения
Вы не можете голосовать в опросах
Вы не можете прикреплять файлы к сообщениям
Вы можете скачивать файлы