Да кто ж он, блин, этот Артур Фогель? / Who the F**K Is Arthur Fogel (Рон Чэпмен / Ron Chapman) [2013, Док. фильм, SATRip]


Статистика раздачи [Обновить пиров]
Размер:  981 MB   |    Зарегистрирован:  1 год   |    Скачан:  0 раз

Полного источника не было: Никогда

 
   
 
 
 

[Цитировать]

Да кто ж он, блин, этот Артур Фогель? / Who the F**K Is Arthur Fogel
Дата/Год выпуска: 2013
Страна: Канада
Жанр: Док. фильм
Продолжительность: 01:30:19
Перевод: Субтитры
Русские субтитры: есть
Режиссер: Рон Чэпмен / Ron Chapman
Описание: Документальный фильм о легендарном канадском импрессарио, организаторе концертов и туров многих знаменитых звезд шоу-бизнеса. Об Артуре Фогеле рассказывают те, кто с ним работал - Мадонна, Стинг, Боно, Леди Гага и многие другие.
SATRip от : Твид
Доп. информация:
Любезно предоставлено клубом Fenix
Сэмпл: http://multi-up.com/986828
качество: SATRip
формат: AVI
Видео: XviD, 1384 kb/s, 640x480, 25 fps, 0.180 bits/pixel
Аудио: 0x0055(MP3) ID'd as MPEG-1 Layer 3, 128 kb/s (2/ch, stereo) CBR, 48000 Hz - английский

MediaInfo

ОбщееПолное имя : D:\FILMS\jetot Arthur Fogel'.SAT-rip.by.Твид.fenixclub.aviФормат : AVIФормат/Информация : Audio Video InterleaveРазмер файла : 981 МбайтПродолжительность : 1 ч. 30 м.Общий поток : 1518 Кбит/сек
ВидеоИдентификатор : 0Формат : MPEG-4 VisualПрофиль формата : Advanced Simple@L5Параметр BVOP формата : 2Параметр QPel формата : НетПараметр GMC формата : Без точки переходаПараметр матрицы формата : Default (H.263)Идентификатор кодека : XVIDИдентификатор кодека/Подсказка : XviDПродолжительность : 1 ч. 30 м.Битрейт : 1380 Кбит/секШирина : 640 пикселейВысота : 480 пикселейСоотношение сторон : 4:3Частота кадров : 25,000 кадров/секЦветовое пространство : YUVСубдискретизация насыщенности : 4:2:0Битовая глубина : 8 битТип развёртки : ПрогрессивнаяМетод сжатия : С потерямиБит/(Пиксели*Кадры) : 0.180Размер потока : 892 Мбайт (91%)Библиотека кодирования : XviD 1.1.2 (UTC 2006-11-01)
АудиоИдентификатор : 1Формат : MPEG AudioВерсия формата : Version 1Профиль формата : Layer 3Режим : Joint stereoРасширение режима : MS StereoИдентификатор кодека : 55Идентификатор кодека/Подсказка : MP3Продолжительность : 1 ч. 30 м.Вид битрейта : ПостоянныйБитрейт : 128 Кбит/секКаналы : 2 каналаЧастота : 48,0 КГцМетод сжатия : С потерямиРазмер потока : 82,7 Мбайт (8%)Выравнивание : Разделение по промежуткамПродолжительность промежутка : 40 мс. (1,00 видеокадр)Время предзагрузки промежутка : 500 мс.

Скриншоты

[teatrix.ru].t11290.torrent 
Торрент: Зарегистрирован [ 2015-12-07 13:40 ] · F11C9E656D8A9E51CA6270D784B9B434B0BAD4F3

Скачать .torrent

Скачать

20 KB

Статус: проверено
Скачан: 0 раз
Размер: 981 MB
terms.php



Быстрый ответ

Имя:

      
Для отправки сообщений необходимо включить JavaScript
Показать сообщения:    

Текущее время: 11-Дек 13:01

Часовой пояс: UTC + 3


Вы можете начинать темы
Вы можете отвечать на сообщения
Вы не можете редактировать свои сообщения
Вы не можете удалять свои сообщения
Вы не можете голосовать в опросах
Вы не можете прикреплять файлы к сообщениям
Вы можете скачивать файлы