Конструктор русского калибра [16/07/2014, Документалистика, DVB]


Статистика раздачи [Обновить пиров]
Размер:  588 MB   |    Зарегистрирован:  1 год   |    Скачан:  0 раз

Полного источника не было: Никогда

 
   
 
 
 

[Цитировать]

Конструктор русского калибра
Дата/Год выпуска: 16/07/2014
Страна: Россия
Жанр: Документалистика
Продолжительность: 00:44:00
Перевод: Не требуется
Русские субтитры: нет
Описание: В 1955 году на экраны страны вышел фильм "Максим Перепелица". Именно в этой, ставшей классикой советского кино, комедии массовый зритель впервые увидел новейшее стрелковое оружие Советской Армии - автомат Калашникова. Ныне один из символов СССР и новой России, этот автомат был принят на вооружение ещё в 1949 году, но тут же засекречен. Тайной оставался не только его внешний вид, но и вид патронов. После стрельб все гильзы тщательно собирали и подсчитывали. Потому что именно в конструкции патрона была половина успеха нового оружия.
Тогда и сейчас мало кто знал, что первый русский автомат и патрон нового калибра к нему были изобретены и опробованы ещё на заре XX века - в 1905 году. А впервые русский автомат был успешно применён в бою с австрийцами во время Первой мировой войны, обратив в бегство противников. Автор первого русского автомата - Владимир Григорьевич Фёдоров, выдающийся оружейник, генерал русской Императорской, а позже Советской Армии. Он подготовил плеяду замечательных конструкторов оружия, среди которых Василий Дегтярёв, Георгий Шпагин, Сергей Симонов.
О непростой биографии и открытиях патриарха русских оружейников Владимира Григорьевича Фёдорова, чьи не только труды, но и, по сути, вся жизнь, прошли под грифом "совершенно секретно", рассказывает документальный фильм "Конструктор русского калибра". Авторы фильма впервые обнародовали неизвестные страницы жизни этого замечательного человека. Несомненный зрительский интерес представляют уникальные фрагменты кинохроники Первой мировой войны, демонстрация в действии видов стрелкового оружия, которое сконструировал Владимир Фёдоров и его ученики.
Сэмпл: http://multi-up.com/986821
качество: DVB
формат: TS/M2TS
Видео: AVC, аноморф. 720х576, 4:3, 1623 Кбит/сек, 25 fps
Аудио: MPEG Audio, 160 Кбит/сек, 48 КГц, 2 канала

MediaInfo

ОбщееИдентификатор : 16 (0x10)Полное имя : Russian designer caliber_SD.tsФормат : MPEG-TSРазмер файла : 588 МбайтПродолжительность : 43 м.Режим общего битрейта : ПеременныйОбщий поток : 1877 Кбит/сек
ВидеоИдентификатор : 1403 (0x57B)Идентификатор меню : 403 (0x193)Формат : AVCФормат/Информация : Advanced Video CodecПрофиль формата : Main@L3.0Параметр CABAC формата : ДаПараметр ReFrames формата : 3 кадраИдентификатор кодека : 27Продолжительность : 43 м.Битрейт : 1623 Кбит/секШирина : 720 пикселейВысота : 576 пикселейСоотношение сторон : 4:3Частота кадров : 25,000 кадров/секСтандарт вещания : PALЦветовое пространство : YUVСубдискретизация насыщенности : 4:2:0Битовая глубина : 8 битТип развёртки : ЧересстрочнаяПорядок развёртки : Верхнее поле первоеБит/(Пиксели*Кадры) : 0.157Размер потока : 508 Мбайт (86%)Основные цвета : BT.601 PALХарактеристики трансфера : BT.470 System B, BT.470 System GКоэффициенты матрицы : BT.601
АудиоИдентификатор : 2403 (0x963)Идентификатор меню : 403 (0x193)Формат : MPEG AudioВерсия формата : Version 1Профиль формата : Layer 2Идентификатор кодека : 4Продолжительность : 43 м.Вид битрейта : ПостоянныйБитрейт : 160 Кбит/секКаналы : 2 каналаЧастота : 48,0 КГцМетод сжатия : С потерямиЗадержка видео : 71 мс.Размер потока : 50,1 Мбайт (9%)Язык : stdЯзык, дополнительно : Clean effects

Скриншоты

[teatrix.ru].t11291.torrent 
Торрент: Зарегистрирован [ 2015-12-07 13:40 ] · F405C237F6254D43042E8E4DB112782AB7F4473B

Скачать .torrent

Скачать

12 KB

Статус: проверено
Скачан: 0 раз
Размер: 588 MB
terms.php



Быстрый ответ

Имя:

      
Для отправки сообщений необходимо включить JavaScript
Показать сообщения:    

Текущее время: 10-Дек 02:11

Часовой пояс: UTC + 3


Вы можете начинать темы
Вы можете отвечать на сообщения
Вы не можете редактировать свои сообщения
Вы не можете удалять свои сообщения
Вы не можете голосовать в опросах
Вы не можете прикреплять файлы к сообщениям
Вы можете скачивать файлы