Эрнест Хемингуэй - Жизнь и смерть агента "Арго" (Геннадий Каюмов) [2012, Биография, история, литература, SATRip]


Статистика раздачи [Обновить пиров]
Размер:  547 MB   |    Зарегистрирован:  1 год   |    Скачан:  0 раз

Полного источника не было: Никогда

 
   
 
 
 

[Цитировать]

Эрнест Хемингуэй - Жизнь и смерть агента "Арго"
Год выпуска: 2012
Страна: Россия
Жанр: Биография, история, литература
Продолжительность: 00:44:00
Перевод: Не требуется
Режиссер: Геннадий Каюмов
Описание: Фильм об отношениях Э. Хемингуэя с разведкой СССР. Когда и кем был завербован агент КГБ "Арго" и насколько полезным он оказался в качестве разведчика.
качество: SATRip
формат: AVI
Видео: XviD, MPEG-4 Visual, 704 x 464 (1.517), 1600 Kbps, 25.000 fps
Аудио: MP3, MPEG Audio, 2 ch, 128 Kbps, 48.0 KHz

MediaInfo

Format : AVIFormat/Info : Audio Video InterleaveFile size : 547 MiBDuration : 44mn 0sOverall bit rate : 1 738 KbpsWriting application : VirtualDubMod 1.5.10.3 | www.virtualdub-fr.org || (build 2550/release)Writing library : VirtualDubMod build 2550/release
VideoID : 0Format : MPEG-4 VisualFormat profile : Advanced Simple@L5Format settings, BVOP : 2Format settings, QPel : NoFormat settings, GMC : No warppointsFormat settings, Matrix : Default (MPEG)Codec ID : XVIDCodec ID/Hint : XviDDuration : 44mn 0sBit rate : 1 600 KbpsWidth : 704 pixelsHeight : 464 pixelsDisplay aspect ratio : 3:2Frame rate : 25.000 fpsColor space : YUVChroma subsampling : 4:2:0Bit depth : 8 bitsScan type : ProgressiveCompression mode : LossyBits/(Pixel*Frame) : 0.196Stream size : 504 MiB (92%)Writing library : XviD 1.2.1 (UTC 2008-12-04)
AudioID : 1Format : MPEG AudioFormat version : Version 1Format profile : Layer 3Codec ID : 55Codec ID/Hint : MP3Duration : 44mn 0sBit rate mode : ConstantBit rate : 128 KbpsChannel(s) : 2 channelsSampling rate : 48.0 KHzCompression mode : LossyStream size : 40.3 MiB (7%)Alignment : Aligned on interleavesInterleave, duration : 40 ms (1.00 video frame)Interleave, preload duration : 504 msWriting library : LAME3.99rEncoding settings : -m s -V 4 -q 2 -lowpass 17 -b 128

Скриншоты

Не забывай говорить "Спасибо"
Пожалуйста не уходите с раздачи!
[teatrix.ru].t11292.torrent 
Торрент: Зарегистрирован [ 2015-12-07 13:40 ] · E14773A9EE3E3F875BA4683C3E51FD45EB3F0E74

Скачать .torrent

Скачать

11 KB

Статус: проверено
Скачан: 0 раз
Размер: 547 MB
terms.php



Быстрый ответ

Имя:

      
Для отправки сообщений необходимо включить JavaScript
Показать сообщения:    

Текущее время: 08-Дек 17:17

Часовой пояс: UTC + 3


Вы можете начинать темы
Вы можете отвечать на сообщения
Вы не можете редактировать свои сообщения
Вы не можете удалять свои сообщения
Вы не можете голосовать в опросах
Вы не можете прикреплять файлы к сообщениям
Вы можете скачивать файлы