Быть Фрэнком / May I Be Frank (Грег Маркс / Gregg Marks, Райланд Энгелхардт / Ryland Engelhart, Конор Гаффни / Conor Gaffney, Кэри Мозьер / Cary Mosier) [2010, документальный, биографический, комедия, DVB] MVO (24ДОК)


Статистика раздачи [Обновить пиров]
Размер:  2.03 GB   |    Зарегистрирован:  11 месяцев   |    Скачан:  0 раз

Полного источника не было: Никогда

 
   
 
 
 

[Цитировать]

Быть Фрэнком
May I Be Frank- Дата/Год выпуска: 2010
Страна: США
Жанр: документальный, биографический, комедия
Продолжительность: 01:35:11
Перевод: Профессиональный (многоголосый закадровый)
Доп. инфо о переводе: 24ДОК
Русские субтитры: нетРежиссер: Грег Маркс / Gregg Marks, Райланд Энгелхардт / Ryland Engelhart, Конор Гаффни / Conor Gaffney, Кэри Мозьер / Cary Mosier
Телеканал: 24ДОК
Описание: Фрэнку Ферранте 54 года. Он бывший наркоман с лишним весом, гепатитом С и кучей вредных привычек. И он хочет еще раз влюбиться до того, как умрет. Это история духовной и физической трансформации Фрэнка, начавшаяся с посещения веганского кафе Gratitude и знакомства с его молодыми работникам, вызвавшимися помочь Фрэнку на пути к здоровой жизни. (анонс канала "24ДОК")
Доп. информация: DVB-S
Награды: приз Best Of Raw Awards 2013; включен в Top 10 Health Documentaries Of All Time 2013.
http://www.imdb.com/title/tt1474792/
Сэмпл: http://multi-up.com/985925
качество: DVB
формат: MKV
Видео: MPEG Video 2, 720x576@768x576 (4:3), 25 fps, ~2800 kbps avg, 0.270 bit/pixel
Аудио: MPEG Audio 2, 2 ch, 48 kHz, ~192.00 kbps avg

MediaInfo

ОбщееУникальный идентификатор : 207500687145025495378838605277363319270 (0x9C1B2DBE52C45835AE48A4BB020A31E6)Полное имя : E:\My Torrents 2\[apreder]May_I_Be_Frank(2010)DVB.mkvФормат : MatroskaВерсия формата : Version 2Размер файла : 2,03 ГбайтПродолжительность : 1 ч. 35 м.Режим общего битрейта : ПеременныйОбщий поток : 3053 Кбит/секДата кодирования : UTC 2014-07-12 14:57:01Программа кодирования : mkvmerge v7.0.0 ('Where We Going') 64bit built on Jun 9 2014 15:16:27Библиотека кодирования : libebml v1.3.0 + libmatroska v1.4.1
ВидеоИдентификатор : 1Формат : MPEG VideoВерсия формата : Version 2Профиль формата : Main@MainПараметр BVOP формата : НетПараметр матрицы формата : ВыборочнаяИдентификатор кодека : V_MPEG2Идентификатор кодека/Информация : MPEG 1 or 2 VideoПродолжительность : 1 ч. 35 м.Вид битрейта : ПеременныйБитрейт : 2800 Кбит/секМаксимальный битрейт : 6128 Кбит/секШирина : 720 пикселейВысота : 576 пикселейСоотношение сторон : 4:3Режим частоты кадров : ПостоянныйЧастота кадров : 25,000 кадров/секСтандарт вещания : PALЦветовое пространство : YUVСубдискретизация насыщенности : 4:2:0Битовая глубина : 8 битТип развёртки : ЧересстрочнаяПорядок развёртки : Верхнее поле первоеМетод сжатия : С потерямиБит/(Пиксели*Кадры) : 0.270Временной код первого кадра : 00:00:00:00Оригинал временного кода : Group of pictures headerРазмер потока : 1,86 Гбайт (92%)Default : ДаForced : Нет
АудиоИдентификатор : 2Формат : MPEG AudioВерсия формата : Version 1Профиль формата : Layer 2Идентификатор кодека : A_MPEG/L2Идентификатор кодека/Подсказка : MP2Продолжительность : 1 ч. 35 м.Вид битрейта : ПостоянныйБитрейт : 192 Кбит/секКаналы : 2 каналаЧастота : 48,0 КГцМетод сжатия : С потерямиРазмер потока : 131 Мбайт (6%)Язык : RussianDefault : ДаForced : Нет

Скриншоты


Резервные скриншоты


-[1'520]
[teatrix.ru].t11293.torrent 
Торрент: Зарегистрирован [ 2015-12-07 13:40 ] · 06D47F211A8D236C1BA013F18FC8638AD0D07909

Скачать .torrent

Скачать

11 KB

Статус: проверено
Скачан: 0 раз
Размер: 2.03 GB
terms.php



Быстрый ответ

Имя:

      
Для отправки сообщений необходимо включить JavaScript
Показать сообщения:    

Текущее время: 05-Дек 01:20

Часовой пояс: UTC + 3


Вы можете начинать темы
Вы можете отвечать на сообщения
Вы не можете редактировать свои сообщения
Вы не можете удалять свои сообщения
Вы не можете голосовать в опросах
Вы не можете прикреплять файлы к сообщениям
Вы можете скачивать файлы