Королевская семья / The Royals (Серии 1-6 из 6) (Бенедетта Пинелли / Benedetta Pinelli) [2014, Документальный ТВ-сериал, TVRip] Rus Sub


Статистика раздачи [Обновить пиров]
Размер:  2.99 GB   |    Зарегистрирован:  1 год   |    Скачан:  1 раз

Полного источника не было: 23 часа

 
   
 
 
 

[Цитировать]

Королевская семья / The Royals
Год выпуска: 2014
Страна: Великобритания (Channel 5)
Жанр: Документальный ТВ-сериал
Продолжительность: ~00:44:00 (серия)
Перевод: Субтитры
Русские субтитры: есть
Оригинальная аудиодорожка: английский
Режиссер: Бенедетта Пинелли / Benedetta Pinelli
Телеканал: Аруц 8 (Израиль)
Описание: Документальный сериал о британской королевской семье. Зрителей приглашают в путешествие, которое затрагивает все аспекты королевской жизни: свадьбы, похороны, скандалы, рассказ о королевских младенцах и подростках, а одна из серий посвящена домашним питомцам. Члены королевской семьи позволили зрителям заглянуть в их личную жизнь, в которой есть место горю и радости, а также существует своя богатая история.
Доп. информация: Запись с канала "Аруц 8". Фильмы на английском языке с двойными субтитрами (вшитыми) на русском языке и иврите. Перевод на русский язык: Татьяна Кадаш (1), Ольга Еленицкая (2,5), Виталий Зинченко (3-4), Виктор Халебский (6). Субтитры: Дори Медиа от ЛТД.
Сэмпл: https://yadi.sk/i/TEzeDtZXWTCb8
качество: TVRip
формат: AVI
Видео: 1495 Кbps, 704х432 (1.630), 25.000 fps, MPEG-4 Visual (XviD)(Advanced Simple@L5)(BVOP2)
Аудио: 128 Kbps,48.0 KHz, 2 сhannels, MPEG Audio (MP3) (Version 1)(Layer 3)(Joint stereo)

Список серий

1. Королевские свадьбы (ROYAL WEDDINGS)
2. Королевские похороны (ROYAL FUNERALS)
3. Королевская молодежь (YOUNG ROYALS)
4. Скандалы (ROYAL SCANDALS)
5. Королевские дети (ROYAL BABIES)
6. Домашние питомцы (ROYAL PETS)

MediaInfo

GeneralComplete name : D:\The Royals\01-ROYAL WEDDINGS.aviFormat : AVIFormat/Info : Audio Video InterleaveFile size : 508 MiBDuration : 43mn 31sOverall bit rate : 1 633 KbpsWriting library : VirtualDub-MPEG2 build 24600/release
VideoID : 0Format : MPEG-4 VisualFormat profile : Advanced Simple@L5Format settings, BVOP : 2Format settings, QPel : NoFormat settings, GMC : No warppointsFormat settings, Matrix : Default (MPEG)Codec ID : XVIDCodec ID/Hint : XviDDuration : 43mn 31sBit rate : 1 495 KbpsWidth : 704 pixelsHeight : 432 pixelsDisplay aspect ratio : 1.630Frame rate : 25.000 fpsColor space : YUVChroma subsampling : 4:2:0Bit depth : 8 bitsScan type : ProgressiveCompression mode : LossyBits/(Pixel*Frame) : 0.197Stream size : 465 MiB (92%)Writing library : XviD 58
AudioID : 1Format : MPEG AudioFormat version : Version 1Format profile : Layer 3Mode : Joint stereoMode extension : MS StereoCodec ID : 55Codec ID/Hint : MP3Duration : 43mn 31sBit rate mode : ConstantBit rate : 128 KbpsChannel(s) : 2 channelsSampling rate : 48.0 KHzCompression mode : LossyStream size : 39.8 MiB (8%)Alignment : Split accross interleavesInterleave, duration : 40 ms (1.00 video frame)Interleave, preload duration : 500 ms

Скриншоты


[teatrix.ru].t11294.torrent 
Торрент: Зарегистрирован [ 2015-12-07 13:40 ] · C610C97CFA3F75A76A753CBEF365EB51E0517C2C

Скачать .torrent

Скачать

5 KB

Статус: проверено
Скачан: 1 раз
Размер: 2.99 GB
terms.php



Быстрый ответ

Имя:

      
Для отправки сообщений необходимо включить JavaScript
Показать сообщения:    

Текущее время: 08-Дек 23:13

Часовой пояс: UTC + 3


Вы можете начинать темы
Вы можете отвечать на сообщения
Вы не можете редактировать свои сообщения
Вы не можете удалять свои сообщения
Вы не можете голосовать в опросах
Вы не можете прикреплять файлы к сообщениям
Вы можете скачивать файлы