Владимир Шухов – последний герой Русского Ренессанса (Анатолий Бальчев) [2013, биографический, строительство и архитектура, DVB]


Статистика раздачи [Обновить пиров]
Размер:  793 MB   |    Зарегистрирован:  1 год   |    Скачан:  0 раз

Полного источника не было: Никогда

 
   
 
 
 

[Цитировать]

Владимир Шухов
Последний герой Русского Ренессанса- Дата/Год выпуска: 2013
Страна: Россия
Жанр: биографический, строительство и архитектура
Продолжительность: 00:43:58
Перевод: Не требуется
Русские субтитры: нет
Режиссер: Анатолий Бальчев
Телеканал: Кто есть ктоОписание: Картина посвящена творчеству и наследию знаменитого архитектора Владимира Григорьевича Шухова (1853-1939), создателя первых в мире гиперболоидных металлических конструкций, в том числе легендарной Шуховской телебашни в Москве. Фильм был приурочен к 160-летию великого ученого.
Доп. информация: DVB-S
Сэмпл: http://multi-up.com/985268
качество: DVB
формат: MKV
Видео: MPEG Video 2, 720x576@768x576 (4:3), 25 fps, ~2279 kbps avg, 0.220 bit/pixel
Аудио: MPEG Audio 2, 2 ch, 48 kHz, ~192.00 kbps avg

MediaInfo

ОбщееУникальный идентификатор : 182018643700678737435602987261110793227 (0x88EF840096CEBAEB87B06AF8FE24340B)Полное имя : E:\My Torrents 2\[apreder]Vladimir_Shukhov(2013)DVB.mkvФормат : MatroskaВерсия формата : Version 2Размер файла : 793 МбайтПродолжительность : 43 м.Режим общего битрейта : ПеременныйОбщий поток : 2521 Кбит/секДата кодирования : UTC 2014-07-09 15:46:59Программа кодирования : mkvmerge v7.0.0 ('Where We Going') 64bit built on Jun 9 2014 15:16:27Библиотека кодирования : libebml v1.3.0 + libmatroska v1.4.1
ВидеоИдентификатор : 1Формат : MPEG VideoВерсия формата : Version 2Профиль формата : Main@MainПараметр BVOP формата : НетПараметр матрицы формата : ВыборочнаяИдентификатор кодека : V_MPEG2Идентификатор кодека/Информация : MPEG 1 or 2 VideoПродолжительность : 43 м.Вид битрейта : ПеременныйБитрейт : 2279 Кбит/секМаксимальный битрейт : 5145 Кбит/секШирина : 720 пикселейВысота : 576 пикселейСоотношение сторон : 4:3Режим частоты кадров : ПостоянныйЧастота кадров : 25,000 кадров/секСтандарт вещания : PALЦветовое пространство : YUVСубдискретизация насыщенности : 4:2:0Битовая глубина : 8 битТип развёртки : ЧересстрочнаяПорядок развёртки : Верхнее поле первоеМетод сжатия : С потерямиБит/(Пиксели*Кадры) : 0.220Временной код первого кадра : 00:00:00:00Оригинал временного кода : Group of pictures headerРазмер потока : 717 Мбайт (90%)Default : ДаForced : Нет
АудиоИдентификатор : 2Формат : MPEG AudioВерсия формата : Version 1Профиль формата : Layer 2Идентификатор кодека : A_MPEG/L2Идентификатор кодека/Подсказка : MP2Продолжительность : 43 м.Вид битрейта : ПостоянныйБитрейт : 192 Кбит/секКаналы : 2 каналаЧастота : 48,0 КГцМетод сжатия : С потерямиРазмер потока : 60,4 Мбайт (8%)Язык : RussianDefault : ДаForced : Нет

Скриншоты


Резервные скриншоты


-[1'513]
[teatrix.ru].t11295.torrent 
Торрент: Зарегистрирован [ 2015-12-07 13:40 ] · CDBF45199FA49BCF8BA693A15D4B1E54C210FC53

Скачать .torrent

Скачать

16 KB

Статус: проверено
Скачан: 0 раз
Размер: 793 MB
terms.php



Быстрый ответ

Имя:

      
Для отправки сообщений необходимо включить JavaScript
Показать сообщения:    

Текущее время: 07-Дек 21:22

Часовой пояс: UTC + 3


Вы можете начинать темы
Вы можете отвечать на сообщения
Вы не можете редактировать свои сообщения
Вы не можете удалять свои сообщения
Вы не можете голосовать в опросах
Вы не можете прикреплять файлы к сообщениям
Вы можете скачивать файлы