Фрунзик Мкртчян / Последние 24 часа (Фуад Шабанов) [2014, Биография, SATRip]


Статистика раздачи [Обновить пиров]
Размер:  597 MB   |    Зарегистрирован:  11 месяцев   |    Скачан:  0 раз

Полного источника не было: Никогда

 
   
 
 
 

[Цитировать]

Фрунзик Мкртчян / Последние 24 часа
Дата/Год выпуска: 2014
Страна: Россия
Жанр: Биография
Продолжительность: 00:52:02
Перевод: Не требуется
Режиссер: Фуад Шабанов
Телеканал: ВРЕМЯ 1
Описание: Ереван. 28 декабря 1993 года. Несмотря на канун Нового года, праздничного настроения в городе не было и помине. Из-за военных действий в Нагорном Карабахе Армения находилась в блокаде. В домах не было ни света, ни тепла. Улицы были темны и пустынны. …По тротуару медленно брел кое-как одетый, поникший мужчина. Никто бы тогда не смог узнать в этом раздавленном горем человеке гордость Армении, любимца миллионов советских зрителей Фрунзе Мкртчяна. Великому актеру оставалось жить всего 24 часа… Большой нос и грустные глаза. В памяти миллионов Фрунзе Мкртчян всегда останется таким. Этот неповторимый профиль стал для него пропуском на съемочные площадки самых именитых советских кинорежиссеров. У актера было 2 имени. По паспорту он был Фрунзе, но соотечественники своего кумира с любовью звали Мгер, что по армянски - солнце. В родной Армении для него были открыты все двери. Фрунзик мог легко обходиться и без паспорта и без денег, таксисты подвозили его за автограф, а продавцы на рынках бесплатно давали лучшие продукты.

Интересно!

Популярность и зрительскую любовь Мкртчяну принесли комедийные роли. Но даже когда Фрунзик шутил и смеялся, его глаза оставались грустными. Тогда никто и представить себе не мог, насколько актер был несчастлив. Нищее, голодное детство, неизлечимая болезнь жены и любимого сына, и неудачные попытки создать новую семью - погрузили Фрунзика в депрессию и запои. Вечером 29 декабря 2003 года великий актер принял свою последнюю дозу алкоголя, ставшую смертельной. Его сердце не выдержало и остановилось навсегда. В фильме использованы уникальные фото и видеоматериалы из личного архива семьи Мкртчян. Съемки в Ленинакане и Ереване, интервью близких друзей и родных Фрунзе: брата, сестры и племянницы, личного врача Фрунзе, соседей по лестничной площадке, а также актеров Вахтанга Кикабидзе и Соса Саркисяна, сценариста Бориса Саакова, президента фонда Ролана Быкова Армена Медведева, режиссеров Георгия Данелия и Аллы Суриковой.
Доп. информация: Спасибо большое за прекрасный постер kosta52 !!!
качество: SATRip
формат: AVI
Видео: XviD, MPEG-4 Visual, 688 x 528 (1.303), 1 467 Kbps, 25.000 fps
Аудио: MP3, MPEG Audio, 2 ch, 128 Kbps, 48.0 KHz

MediaInfo

Format : AVIFormat/Info : Audio Video InterleaveFile size : 597 MiBDuration : 52mn 2sOverall bit rate : 1 605 KbpsWriting application : VirtualDubMod 1.5.10.3 | www.virtualdub-fr.org || (build 2550/release)Writing library : VirtualDubMod build 2550/release
VideoID : 0Format : MPEG-4 VisualFormat profile : Advanced Simple@L5Format settings, BVOP : 2Format settings, QPel : NoFormat settings, GMC : No warppointsFormat settings, Matrix : Default (MPEG)Codec ID : XVIDCodec ID/Hint : XviDDuration : 52mn 2sBit rate : 1 467 KbpsWidth : 688 pixelsHeight : 528 pixelsDisplay aspect ratio : 4:3Frame rate : 25.000 fpsColor space : YUVChroma subsampling : 4:2:0Bit depth : 8 bitsScan type : ProgressiveCompression mode : LossyBits/(Pixel*Frame) : 0.162Stream size : 546 MiB (91%)Writing library : XviD 1.2.1 (UTC 2008-12-04)
AudioID : 1Format : MPEG AudioFormat version : Version 1Format profile : Layer 3Codec ID : 55Codec ID/Hint : MP3Duration : 52mn 2sBit rate mode : ConstantBit rate : 128 KbpsChannel(s) : 2 channelsSampling rate : 48.0 KHzCompression mode : LossyStream size : 47.7 MiB (8%)Alignment : Aligned on interleavesInterleave, duration : 40 ms (1.00 video frame)Interleave, preload duration : 504 msWriting library : LAME3.99rEncoding settings : -m s -V 4 -q 2 -lowpass 17 -b 128

Скриншоты

Не забывай говорить "Спасибо"
Пожалуйста не уходите с раздачи!
[teatrix.ru].t11296.torrent 
Торрент: Зарегистрирован [ 2015-12-07 13:40 ] · 121BFA88A180F7C3D96D66B06D30DBC3F9ECAD0D

Скачать .torrent

Скачать

12 KB

Статус: проверено
Скачан: 0 раз
Размер: 597 MB
terms.php



Быстрый ответ

Имя:

      
Для отправки сообщений необходимо включить JavaScript
Показать сообщения:    

Текущее время: 06-Дек 19:02

Часовой пояс: UTC + 3


Вы можете начинать темы
Вы можете отвечать на сообщения
Вы не можете редактировать свои сообщения
Вы не можете удалять свои сообщения
Вы не можете голосовать в опросах
Вы не можете прикреплять файлы к сообщениям
Вы можете скачивать файлы