Булат Окуджава - Я выполнил свое предназначение... (Татьяна Малова) [2014, Биография, искусство, SATRip]


Статистика раздачи [Обновить пиров]
Размер:  510 MB   |    Зарегистрирован:  11 месяцев   |    Скачан:  0 раз

Полного источника не было: Никогда

 
   
 
 
 

[Цитировать]

Булат Окуджава - Я выполнил свое предназначение...
Год выпуска: 2014
Страна: Россия
Жанр: Биография, искусство
Продолжительность: 00:38:54
Перевод: Не требуется
Режиссер: Татьяна Малова
Телеканал: Культура
Описание: 9 мая исполнилось 90 лет со дня рождения Булата Шалвовича Окуджавы. Эти линии были у Окуджавы одним целым: жизнь - творчеством, творчество - жизнью. На протяжении всего своего пути Булат Окуджава не переставал быть художником: сочинял стихи и песни, писал книги, сценарии… При этом все его произведения были "о чем-то большем", всегда простая человеческая история вырастала у Булата Шалвовича до размера философского откровения. В фильм вошли записи интервью Беллы Ахмадулиной, Владимира Мотыля, Исаака Шварца.

В земные страсти вовлеченный...

В земные страсти вовлеченный,
я знаю, что из тьмы на свет
однажды выйдет ангел черный
и крикнет, что спасенья нет.
Но простодушный и несмелый,
прекрасный, как благая весть,
идущий следом ангел белый
прошепчет, что надежда есть.
Булат Окуджава
Доп. информация: Rip by lesik689
качество: SATRip
формат: AVI
видео кодек: XviD
аудио кодек: MP3
Видео: MPEG-4 Visual, 704 x 400 (1.760), 1697 Kbps, 25.000 fps
Аудио: MPEG Audio, 2 ch, 128 Kbps, 128 Kbps

MediaInfo

Format : AVIFormat/Info : Audio Video InterleaveFile size : 510 MiBDuration : 38mn 54sOverall bit rate : 1 834 KbpsWriting application : VirtualDubMod 1.5.10.2 (build 2542/release)Writing library : VirtualDubMod build 2542/release
VideoID : 0Format : MPEG-4 VisualFormat profile : Advanced Simple@L5Format settings, BVOP : 2Format settings, QPel : NoFormat settings, GMC : No warppointsFormat settings, Matrix : Default (MPEG)Muxing mode : Packed bitstreamCodec ID : XVIDCodec ID/Hint : XviDDuration : 38mn 54sBit rate : 1 697 KbpsWidth : 704 pixelsHeight : 400 pixelsDisplay aspect ratio : 5:4Original display aspect ratio : 16:9Frame rate : 25.000 fpsColor space : YUVChroma subsampling : 4:2:0Bit depth : 8 bitsScan type : ProgressiveCompression mode : LossyBits/(Pixel*Frame) : 0.241Stream size : 472 MiB (92%)Writing library : XviD 64
AudioID : 1Format : MPEG AudioFormat version : Version 1Format profile : Layer 3Mode : Joint stereoMode extension : MS StereoCodec ID : 55Codec ID/Hint : MP3Duration : 38mn 54sBit rate mode : ConstantBit rate : 128 KbpsChannel(s) : 2 channelsSampling rate : 48.0 KHzCompression mode : LossyStream size : 35.6 MiB (7%)Alignment : Split accross interleavesInterleave, duration : 40 ms (1.00 video frame)Interleave, preload duration : 500 ms

Скриншоты

Не забывай говорить "Спасибо"
Пожалуйста не уходите с раздачи!
[teatrix.ru].t11297.torrent 
Торрент: Зарегистрирован [ 2015-12-07 13:40 ] · C8C028B1918642219A801D46146F633F5CB5D8E6

Скачать .torrent

Скачать

21 KB

Статус: проверено
Скачан: 0 раз
Размер: 510 MB
terms.php



Быстрый ответ

Имя:

      
Для отправки сообщений необходимо включить JavaScript
Показать сообщения:    

Текущее время: 05-Дек 23:40

Часовой пояс: UTC + 3


Вы можете начинать темы
Вы можете отвечать на сообщения
Вы не можете редактировать свои сообщения
Вы не можете удалять свои сообщения
Вы не можете голосовать в опросах
Вы не можете прикреплять файлы к сообщениям
Вы можете скачивать файлы